↑↓Torrent.by
Поиск
Логин: Регистрация
Пароль: Восстановить пароль
Загрузка...

Алита: Боевой ангел / Alita: Battle Angel (2019) WEB-DL 1080p | СВ Студия

Скачать alita-boevoy-angel-battle-2019-web-dl-1080p-sv-studiya.torrent
U Магнитная ссылка Размер: 4.36 GB Раздают: 209 Качают: 82 Добавлен: 2019-07-09 09:15:07
Алита: Боевой ангел / Alita: Battle Angel (2019) WEB-DL 1080p | СВ Студия

Название: Алита: Боевой ангел
Оригинальное название: Alita: Battle Angel
Год выхода: 2019
Жанр: Фантастика, боевик, триллер, мелодрама, приключения
Режиссер: Роберт Родригес
В ролях: Роза Салазар, Кристоф Вальц, Дженнифер Коннелли, Махершала Али, Эд Скрейн, Джеки Эрл Хейли, Кин Джонсон, Хорхе Лендеборг мл., Лана Кондор, Идара Виктор

О фильме:
Действие фильма происходит через 300 лет после Великой войны в XXVI веке. Доктор Идо находит останки женщины-киборга. После починки киборг ничего не помнит, но обнаруживает, что в состоянии пользоваться боевыми приемами киборгов. Начинаются поиски утерянных воспоминаний.

Страна: Канада, Аргентина, США
Студия: Twentieth Century Fox, Lightstorm Entertainment, Troublemaker Studios
Продолжительность: 02:02:09
Перевод: Профессиональный многоголосый | СВ Студия

Файл
Кодек: AVC
Качество: WEB-DL 1080p | Alita.Battle.Angel.2019.1080p.WEB-DL.DD5.1.H264-FGT
Видео: MPEG-4 AVC, 4537 Kбит/с, 1920x804, 24,000 кадр/с
Звук: ► Без Рекламы!
Аудио #1: Русский (АС3, 2ch, 192 Кбит/с, 48.0 KHz) Профессиональный (многоголосый, закадровый) СВ Студия
Аудио #2: Английский (АС3, 6ch, 384 Кбит/с, 48.0 KHz)
Субтитры: Aнглийские (full, SDH)
Трейлер




[+] MediaInfo
Источник: Alita.Battle.Angel.2019.1080p.WEB-DL.DD5.1.H264-FGT
General
Unique ID                      : 242413802302135995492723216748362401609 (0xB65F33385AA56731BE89D86B18D10749)
Complete name                  : Alita.Battle.Angel.2019.WEB-DL.1080p.mkv
Format                         : Matroska
Format version                 : Version 4
File size                      : 4.36 GiB
Duration                       : 2 h 2 min
Overall bit rate               : 5 115 kb/s
Encoded date                   : UTC 2019-07-08 17:14:01
Writing application            : mkvmerge v7.1.0 ('Good Love') 64bit built on Jul 27 2014 13:06:55
Writing library                : libebml v1.3.0 + libmatroska v1.4.1

Video
ID                             : 1
Format                         : AVC
Format/Info                    : Advanced Video Codec
Format profile                 : High@L4
Format settings                : CABAC / 5 Ref Frames
Format settings, CABAC         : Yes
Format settings, Reference fra : 5 frames
Codec ID                       : V_MPEG4/ISO/AVC
Duration                       : 2 h 2 min
Bit rate                       : 4 537 kb/s
Width                          : 1 920 pixels
Height                         : 804 pixels
Display aspect ratio           : 2.40:1
Frame rate mode                : Constant
Frame rate                     : 23.976 FPS
Color space                    : YUV
Chroma subsampling             : 4:2:0
Bit depth                      : 8 bits
Scan type                      : Progressive
Bits/(Pixel*Frame)             : 0.123
Stream size                    : 3.87 GiB (89%)
Language                       : English
Default                        : Yes
Forced                         : No
Color range                    : Limited
Color primaries                : BT.709
Transfer characteristics       : BT.709
Matrix coefficients            : BT.709

Audio #1
ID                             : 2
Format                         : AC-3
Format/Info                    : Audio Coding 3
Commercial name                : Dolby Digital
Codec ID                       : A_AC3
Duration                       : 2 h 1 min
Bit rate mode                  : Constant
Bit rate                       : 192 kb/s
Channel(s)                     : 2 channels
Channel layout                 : L R
Sampling rate                  : 48.0 kHz
Frame rate                     : 31.250 FPS (1536 SPF)
Bit depth                      : 16 bits
Compression mode               : Lossy
Stream size                    : 167 MiB (4%)
Title                          : MVO | СВ Студия
Language                       : Russian
Service kind                   : Complete Main
Default                        : Yes
Forced                         : No

Audio #2
ID                             : 3
Format                         : AC-3
Format/Info                    : Audio Coding 3
Commercial name                : Dolby Digital
Codec ID                       : A_AC3
Duration                       : 2 h 1 min
Bit rate mode                  : Constant
Bit rate                       : 384 kb/s
Channel(s)                     : 6 channels
Channel layout                 : L R C LFE Ls Rs
Sampling rate                  : 48.0 kHz
Frame rate                     : 31.250 FPS (1536 SPF)
Bit depth                      : 16 bits
Compression mode               : Lossy
Stream size                    : 335 MiB (7%)
Language                       : English
Service kind                   : Complete Main
Default                        : No
Forced                         : No

Text #1
ID                             : 4
Format                         : UTF-8
Codec ID                       : S_TEXT/UTF8
Codec ID/Info                  : UTF-8 Plain Text
Duration                       : 1 h 55 min
Bit rate                       : 41 b/s
Count of elements              : 1347
Stream size                    : 34.9 KiB (0%)
Language                       : English
Default                        : No
Forced                         : No

Text #2
ID                             : 5
Format                         : UTF-8
Codec ID                       : S_TEXT/UTF8
Codec ID/Info                  : UTF-8 Plain Text
Duration                       : 1 h 55 min
Bit rate                       : 46 b/s
Count of elements              : 1588
Stream size                    : 39.4 KiB (0%)
Title                          : SDH
Language                       : English
Default                        : No
Forced                         : No

Menu
00:00:00.000                   : en:Chapter 01
00:03:29.626                   : en:Chapter 02
00:07:52.680                   : en:Chapter 03
00:10:08.982                   : en:Chapter 04
00:13:07.702                   : en:Chapter 05
00:15:07.738                   : en:Chapter 06
00:18:05.539                   : en:Chapter 07
00:22:59.707                   : en:Chapter 08
00:25:36.321                   : en:Chapter 09
00:31:41.893                   : en:Chapter 10
00:33:30.209                   : en:Chapter 11
00:36:33.809                   : en:Chapter 12
00:38:31.885                   : en:Chapter 13
00:42:06.473                   : en:Chapter 14
00:45:59.204                   : en:Chapter 15
00:48:32.439                   : en:Chapter 16
00:52:57.995                   : en:Chapter 17
00:55:15.339                   : en:Chapter 18
01:00:40.746                   : en:Chapter 19
01:02:57.548                   : en:Chapter 20
01:05:17.770                   : en:Chapter 21
01:10:51.477                   : en:Chapter 22
01:13:38.268                   : en:Chapter 23
01:16:36.194                   : en:Chapter 24
01:18:53.205                   : en:Chapter 25
01:22:49.274                   : en:Chapter 26
01:24:56.316                   : en:Chapter 27
01:28:26.192                   : en:Chapter 28
01:33:19.527                   : en:Chapter 29
01:36:09.738                   : en:Chapter 30
01:41:55.667                   : en:Chapter 31
01:45:24.417                   : en:Chapter 32
01:48:17.464                   : en:Chapter 33
01:51:44.628                   : en:Chapter 34
01:54:44.640                   : en:Chapter 35
01:56:52.476                   : en:Chapter 36



Скриншоты:
[+] Всего файлов в раздаче - 1:
Alita.Battle.Angel.2019.WEB-DL.1080p.mkv4.36 GB

Показать еще раздачи по запросу алита:
Вчера U Алита: Боевой ангел / Alita: Battle Angel (2019) BDRip от Twister & ExKinoRay | Локализованная версия | Лицензия 2.18 GB ↑ 64 ↓ 26
Вчера U Алита: Боевой ангел / Alita: Battle Angel (2019) Blu-Ray EUR 1080p | 3D-Video | Лицензия 44.69 GB ↑ 36 ↓ 10
Вчера U Алита: Боевой ангел / Alita: Battle Angel (2019) BDRip-AVC от HELLYWOOD | Локализованная версия | Лицензия 2.91 GB ↑ 75 ↓ 15
2019-07-17 U Алита: Боевой ангел / Alita: Battle Angel (2019) BDRip-AVC от HELLYWOOD | Локализованная версия | Лицензия 1.46 GB ↑ 57 ↓ 29
2019-07-16 U Алита: Боевой ангел / Alita: Battle Angel (2019) UHD BDRemux 2160p от ExKinoRay | 4K | HDR | D, P | Локализованная версия | Лицензия 41.88 GB ↑ 48 ↓ 119
2019-07-16 U Алита: Боевой ангел / Alita: Battle Angel (2019) BDRip-HEVC 1080p от HANNIBAL | Лицензия 8.32 GB ↑ 150 ↓ 95
2019-07-16 U Алита: Боевой ангел / Alita: Battle Angel (2019) BDRip 1080p от Ash61 | 3D-Video | halfOU | Лицензия 12.55 GB ↑ 193 ↓ 201

Отзывы
Зарегистрируйтесь чтобы добавить комментарий.
Обратная связь
Copyleft ©