↑↓Torrent.by
Поиск
Логин: Регистрация
Пароль: Восстановить пароль
Загрузка...

Хеллбой / Hellboy (2019) WEB-DL 720p от селезень | Локализованная версия | D, P | iTunes

Скачать hellboy-2019-web-dl-720p-ot-selezen-lokalizovannaya-versiya-d-p-itunes.torrent
U Магнитная ссылка Размер: 4.21 GB Раздают: 160 Качают: 80 Добавлен: 2019-07-09 09:15:10
Хеллбой / Hellboy (2019) WEB-DL 720p от селезень | Локализованная версия | D, P | iTunes

Название: Хеллбой
Оригинальное название: Hellboy
Год выхода: 2019
Жанр: Фэнтези, боевик, приключения
Режиссер: Нил Маршалл
В ролях: Дэвид Харбор, Иэн МакШейн, Милла Йовович, Саша Лэйн, Дэниэл Дэ Ким, Алистэр Петри, Софи Оконедо, Томас Хейден Чёрч, Марк Стэнли, Брин Глисон, Надя Керанова, Мария Тепавичарова, Ана Тобакова, Пенелопа Митчелл, Терри Рендал, Стивен Грэм, Марио де ла Роса, Ванесса Эйчхольц

О фильме:
Близится час битвы Хеллбоя с Кровавой королевой, жаждущей отомстить всему человечеству за века в заточении. Оказавшись в эпицентре столкновения миров людей и монстров, Хеллбою придется пройти через ад, чтобы предотвратить надвигающийся апокалипсис.

Страна: США
Студия: Summit Entertainment, Millennium Films, Campbell Grobman Films
Продолжительность: 02:00:47
Перевод(ы):
#1: Дублированный | iTunes
#2: Профессиональный многоголосый | СВ Студия

Качество: WEB-DL 720p
Видео: MPEG-4 AVC, 1280x532, 4029 Kbit/s, 23.976 fps
Звук:
Аудио #01: 48 kHz, AC3, 5.1, 384 Kbps | iTunes | RUS |
Аудио #02: 48 kHz, AC3, 2.0, 192 Kbps | СВ Студия | RUS |
Аудио #03: 48 kHz, AC3, 2.0, 384 Kbps | Оригинал |  ENG |

Релиз:


[+] MI
General
Unique ID                   : 314155177457509944792582027219581031314 (0xEC58161AB4382FFDE307E4F6791C5392)
Complete name               : D:Video111Hellboy.2019.D.MVO.WEB-DL.720p.seleZen.mkv
Format                      : Matroska
Format version              : Version 4
File size                   : 4.21 GiB
Duration                    : 2 h 0 min
Overall bit rate            : 4 991 kb/s
Movie name                  : Hellboy 2019 from селезень
Encoded date                : UTC 2019-07-08 20:57:32
Writing application         : mkvmerge v35.0.0 ('All The Love In The World') 64-bit
Writing library             : libebml v1.3.9 + libmatroska v1.5.2

Video
ID                          : 1
Format                      : AVC
Format/Info                 : Advanced Video Codec
Format profile              : Main@L3.1
Format settings             : 2 Ref Frames
Format settings, CABAC      : No
Format settings, Reference  : 2 frames
Codec ID                    : V_MPEG4/ISO/AVC
Duration                    : 2 h 0 min
Bit rate                    : 4 029 kb/s
Width                       : 1 280 pixels
Height                      : 532 pixels
Display aspect ratio        : 2.40:1
Frame rate mode             : Constant
Frame rate                  : 23.976 (24000/1001) FPS
Color space                 : YUV
Chroma subsampling          : 4:2:0
Bit depth                   : 8 bits
Scan type                   : Progressive
Bits/(Pixel*Frame)          : 0.247
Stream size                 : 3.40 GiB (81%)
Language                    : English
Default                     : Yes
Forced                      : No
Color range                 : Limited
Color primaries             : BT.709
Transfer characteristics    : BT.709
Matrix coefficients         : BT.709

Audio #1
ID                          : 2
Format                      : AC-3
Format/Info                 : Audio Coding 3
Commercial name             : Dolby Digital
Codec ID                    : A_AC3
Duration                    : 2 h 0 min
Bit rate mode               : Constant
Bit rate                    : 384 kb/s
Channel(s)                  : 6 channels
Channel layout              : L R C LFE Ls Rs
Sampling rate               : 48.0 kHz
Frame rate                  : 31.250 FPS (1536 SPF)
Bit depth                   : 16 bits
Compression mode            : Lossy
Stream size                 : 332 MiB (8%)
Title                       : iTunes
Language                    : Russian
Service kind                : Complete Main
Default                     : Yes
Forced                      : Yes

Audio #2
ID                          : 3
Format                      : AC-3
Format/Info                 : Audio Coding 3
Commercial name             : Dolby Digital
Codec ID                    : A_AC3
Duration                    : 2 h 0 min
Bit rate mode               : Constant
Bit rate                    : 192 kb/s
Channel(s)                  : 2 channels
Channel layout              : L R
Sampling rate               : 48.0 kHz
Frame rate                  : 31.250 FPS (1536 SPF)
Bit depth                   : 16 bits
Compression mode            : Lossy
Stream size                 : 166 MiB (4%)
Title                       : MVO [СВ Студия]
Language                    : Russian
Service kind                : Complete Main
Default                     : No
Forced                      : No

Audio #3
ID                          : 4
Format                      : AC-3
Format/Info                 : Audio Coding 3
Commercial name             : Dolby Digital
Codec ID                    : A_AC3
Duration                    : 2 h 0 min
Bit rate mode               : Constant
Bit rate                    : 384 kb/s
Channel(s)                  : 2 channels
Channel layout              : L R
Sampling rate               : 48.0 kHz
Frame rate                  : 31.250 FPS (1536 SPF)
Bit depth                   : 16 bits
Compression mode            : Lossy
Delay relative to video     : 5 s 200 ms
Stream size                 : 331 MiB (8%)
Title                       : Original
Language                    : English
Service kind                : Complete Main
Default                     : No
Forced                      : No

Menu
00:00:00.000                : en:1
00:02:41.000                : en:2
00:14:28.000                : en:3
00:26:36.000                : en:4
00:35:34.000                : en:5
00:43:37.000                : en:6
00:55:01.000                : en:7
01:02:12.000                : en:8
01:12:04.000                : en:9
01:25:54.000                : en:10
01:34:17.000                : en:11
01:48:05.000                : en:12



Скриншоты:
[+] Всего файлов в раздаче - 1:
Hellboy.2019.D.MVO.WEB-DL.720p.seleZen.mkv4.21 GB

Показать еще раздачи по запросу хеллбой:
Сегодня U Хеллбой / Hellboy (2019) HDRip-AVC от ExKinoRay | iTunes, P 2.36 GB ↑ 108 ↓ 48
Сегодня U Хеллбой / Hellboy (2019) BDRip 1080p от селезень | D, P | iTunes 11.33 GB ↑ 85 ↓ 33
Вчера U Хеллбой / Hellboy (2019) UHD BDRip 1080p от селезень | D, P | iTunes 2К11.01 GB ↑ 132 ↓ 98
Вчера U Хеллбой / Hellboy (2019) HDRip-AVC от ExKinoRay | iTunes, P 2.36 GB ↑ 443 ↓ 25
2019-07-10 U Хеллбой / Hellboy (2019) WEBRip-HEVC 2160p | 4K | HDR | D, P | iTunes 12.28 GB ↑ 221 ↓ 92
2019-07-09 U Хеллбой / Hellboy (2019) WEB-DLRip-AVC от New-Team | Локализованная версия | D 1.44 GB ↑ 78 ↓ 41
2019-07-09 U Хеллбой / Hellboy (2019) WEB-DLRip-AVC от ExKinoRay | iTunes 2.12 GB ↑ 215 ↓ 140

Отзывы
Зарегистрируйтесь чтобы добавить комментарий.
Обратная связь
Copyleft ©