↑↓Torrent.by
Поиск
Логин: Регистрация
Пароль: Восстановить пароль
Загрузка...

Алита: Боевой ангел / Alita: Battle Angel (2019) WEB-DL 1080p | CВ Студия

Скачать alita-boevoy-angel-battle-2019-web-dl-1080p-cv-studiya.torrent
U Магнитная ссылка Размер: 7.02 GB Раздают: 92 Качают: 76 Добавлен: 2019-07-09 09:15:29
Алита: Боевой ангел / Alita: Battle Angel (2019) WEB-DL 1080p | CВ Студия

Название: Алита: Боевой ангел
Оригинальное название: Alita: Battle Angel
Год выхода: 2019
Жанр: Фантастика, боевик, триллер, приключения
Режиссер: Роберт Родригес
В ролях: Роза Салазар, Кристоф Вальц, Дженнифер Коннелли, Махершала Али, Эд Скрейн, Джеки Эрл Хейли, Кин Джонсон, Хорхе Лендеборг мл., Лана Кондор, Идара Виктор

О фильме:
Действие фильма происходит через 300 лет после Великой войны в XXVI веке. Доктор Идо находит останки женщины-киборга. После починки киборг ничего не помнит, но обнаруживает, что в состоянии пользоваться боевыми приемами киборгов. Начинаются поиски утерянных воспоминаний.

 
Страна: США
Студия: Twentieth Century Fox, Lightstorm Entertainment, Troublemaker Studios
Продолжительность: 02:02:04
Перевод: Профессиональный многоголосый закадровый (CВ Студия)
Без рекламы

Файл
Качество: WEB-DL 1080p | CВ Студия
Видео: AVC/H.264, 1920x1080, 7654 Кbps, 23,976 fps
Звук:
Аудио 1: AC3, 2 ch, 192 Kbps - Русский
Аудио 2: AC3, 6 ch, 384 Kbps - Английский
Субтитры: Русские, Английские


[+] Mediainfo
Общее
Уникальный идентификатор                 : 180679351437786128415294436883446427365 (0x87ED93CBADE7B0F5CC67B978DBB4EEE5)
Полное имя                               : Alita_Battle Angel_2019_WEB-DL_1080p.mkv
Формат                                   : Matroska
Версия формата                           : Version 4
Размер файла                             : 7,02 Гбайт
Продолжительность                        : 2 ч. 2 м.
Общий поток                              : 8232 Кбит/сек
Название фильма                          : EVO
Дата кодирования                         : UTC 2019-07-08 22:41:22
Программа кодирования                    : mkvmerge v23.0.0 ('The Bride Said No') 64-bit
Библиотека кодирования                   : libebml v1.3.6 + libmatroska v1.4.9

Видео
Идентификатор                            : 1
Формат                                   : AVC
Формат/Информация                        : Advanced Video Codec
Профиль формата                          : High@L4
Настройки формата                        : CABAC / 2 Ref Frames
Параметр CABAC формата                   : Да
Параметр RefFrames формата               : 2 кадра
Идентификатор кодека                     : V_MPEG4/ISO/AVC
Продолжительность                        : 2 ч. 2 м.
Битрейт                                  : 7654 Кбит/сек
Ширина                                   : 1920 пикселей
Высота                                   : 1080 пикселей
Соотношение сторон                       : 16:9
Режим частоты кадров                     : Постоянный
Частота кадров                           : 23,976 (24000/1001) кадра/сек
Цветовое пространство                    : YUV
Субдискретизация насыщенности            : 4:2:0
Битовая глубина                          : 8 бит
Тип развёртки                            : Прогрессивная
Бит/(Пиксели*Кадры)                      : 0.154
Размер потока                            : 6,53 Гбайт (93%)
Язык                                     : English
Default                                  : Да
Forced                                   : Нет
Цветовой диапазон                        : Limited
Основные цвета                           : BT.709
Характеристики трансфера                 : BT.709
Коэффициенты матрицы                     : BT.709

Аудио #1
Идентификатор                            : 2
Формат                                   : AC-3
Формат/Информация                        : Audio Coding 3
Коммерческое название                    : Dolby Digital
Идентификатор кодека                     : A_AC3
Продолжительность                        : 2 ч. 1 м.
Вид битрейта                             : Постоянный
Битрейт                                  : 192 Кбит/сек
Каналы                                   : 2 канала
ChannelLayout                            : L R
Частота                                  : 48,0 КГц
Частота кадров                           : 31,250 кадров/сек (1536 SPF)
Битовая глубина                          : 16 бит
Метод сжатия                             : С потерями
Размер потока                            : 167 Мбайт (2%)
Заголовок                                : MVO - СВ Студия
Язык                                     : Russian
ServiceKind                              : Complete Main
Default                                  : Да
Forced                                   : Нет

Аудио #2
Идентификатор                            : 3
Формат                                   : AC-3
Формат/Информация                        : Audio Coding 3
Коммерческое название                    : Dolby Digital
Идентификатор кодека                     : A_AC3
Продолжительность                        : 2 ч. 1 м.
Вид битрейта                             : Постоянный
Битрейт                                  : 384 Кбит/сек
Каналы                                   : 6 каналов
ChannelLayout                            : L R C LFE Ls Rs
Частота                                  : 48,0 КГц
Частота кадров                           : 31,250 кадров/сек (1536 SPF)
Битовая глубина                          : 16 бит
Метод сжатия                             : С потерями
Размер потока                            : 335 Мбайт (5%)
Язык                                     : English
ServiceKind                              : Complete Main
Default                                  : Нет
Forced                                   : Нет

Текст #1
Идентификатор                            : 4
Формат                                   : UTF-8
Идентификатор кодека                     : S_TEXT/UTF8
Идентификатор кодека/Информация          : UTF-8 Plain Text
Продолжительность                        : 1 ч. 56 м.
Битрейт                                  : 64 бит/сек
ElementCount                             : 1318
Размер потока                            : 55,4 Кбайт (0%)
Заголовок                                : Full (Focs)
Язык                                     : Russian
Default                                  : Нет
Forced                                   : Нет

Текст #2
Идентификатор                            : 5
Формат                                   : UTF-8
Идентификатор кодека                     : S_TEXT/UTF8
Идентификатор кодека/Информация          : UTF-8 Plain Text
Продолжительность                        : 1 ч. 55 м.
Битрейт                                  : 41 бит/сек
ElementCount                             : 1347
Размер потока                            : 34,9 Кбайт (0%)
Заголовок                                : Full
Язык                                     : English
Default                                  : Нет
Forced                                   : Нет

Текст #3
Идентификатор                            : 6
Формат                                   : UTF-8
Идентификатор кодека                     : S_TEXT/UTF8
Идентификатор кодека/Информация          : UTF-8 Plain Text
Продолжительность                        : 1 ч. 55 м.
Битрейт                                  : 46 бит/сек
ElementCount                             : 1588
Размер потока                            : 39,4 Кбайт (0%)
Заголовок                                : SDH
Язык                                     : English
Default                                  : Нет
Forced                                   : Нет

Меню
00:00:00.000                             : en:Chapter 01
00:03:29.626                             : en:Chapter 02
00:07:52.680                             : en:Chapter 03
00:10:08.982                             : en:Chapter 04
00:13:07.702                             : en:Chapter 05
00:15:07.738                             : en:Chapter 06
00:18:05.539                             : en:Chapter 07
00:22:59.707                             : en:Chapter 08
00:25:36.321                             : en:Chapter 09
00:31:41.893                             : en:Chapter 10
00:33:30.209                             : en:Chapter 11
00:36:33.809                             : en:Chapter 12
00:38:31.885                             : en:Chapter 13
00:42:06.473                             : en:Chapter 14
00:45:59.204                             : en:Chapter 15
00:48:32.439                             : en:Chapter 16
00:52:57.995                             : en:Chapter 17
00:55:15.339                             : en:Chapter 18
01:00:40.746                             : en:Chapter 19
01:02:57.548                             : en:Chapter 20
01:05:17.770                             : en:Chapter 21
01:10:51.477                             : en:Chapter 22
01:13:38.268                             : en:Chapter 23
01:16:36.194                             : en:Chapter 24
01:18:53.205                             : en:Chapter 25
01:22:49.274                             : en:Chapter 26
01:24:56.316                             : en:Chapter 27
01:28:26.192                             : en:Chapter 28
01:33:19.527                             : en:Chapter 29
01:36:09.738                             : en:Chapter 30
01:41:55.667                             : en:Chapter 31
01:45:24.417                             : en:Chapter 32
01:48:17.464                             : en:Chapter 33
01:51:44.628                             : en:Chapter 34
01:54:44.640                             : en:Chapter 35
01:56:52.476                             : en:Chapter 36



[+] Мнение о фильме (спойлер)
Концовка тупая. Непонятно зачем она решила играть в мячик, когда можно и так забраться наверх по канату. Тело же у нее нешуточное. Да и паренек тот дебил, тело механическое - когда вниз полетел мог бы руки/ноги выставить как кошка, все равно у него от настоящего тела одна башка осталась, а конечности можно сменить. Непонятно зачем война была, почему марсиане хотели уничтожить Залем и прочие города. И кто там живет не показали, такое впечатление что наверху вообще 1 доктор проживает. Ничего не объяснили, ничего не раскрыли, где ее боевые подружки, жива ли цивилизация на Марсе, в общем картина еще бредовее чем Хищные города или Первому приготовиться.



[+] Скрытый текст
Video
ID : 1
Format : AVC
Format/Info : Advanced Video Codec
Format profile : High@L4
Format settings : CABAC / 4 Ref Frames
Format settings, CABAC : Yes
Format settings, ReFrames : 4 frames
Codec ID : V_MPEG4/ISO/AVC
Duration : 2 h 1 min
Bit rate : 1 899 kb/s
Nominal bit rate : 3 072 kb/s
Width : 1 920 pixels
Height : 1 080 pixels
Display aspect ratio : 16:9
Frame rate mode : Constant
Frame rate : 23.976 (24000/1001) FPS
Color space : YUV
Chroma subsampling : 4:2:0
Bit depth : 8 bits
Scan type : Progressive
Bits/(Pixel*Frame) : 0.038
Stream size : 1.62 GiB (88%)
Title : Alita.Battle.Angel.2019.1080p.WEBRip.AAC2.0.x264-BADQUALITY
Writing library : x264 core 148
Encoding settings : cabac=1 / ref=3 / deblock=1:0:0 / analyse=0x3:0x113 / me=hex / subme=7 / psy=1 / psy_rd=1.00:0.00 / mixed_ref=1 / me_range=16 / chroma_me=1 / trellis=1 / 8x8dct=1 / cqm=0 / deadzone=21,11 / fast_pskip=1 / chroma_qp_offset=-2 / threads=18 / lookahead_threads=3 / sliced_threads=0 / nr=0 / decimate=1 / interlaced=0 / bluray_compat=0 / constrained_intra=0 / bframes=3 / b_pyramid=2 / b_adapt=1 / b_bias=0 / direct=1 / weightb=1 / open_gop=0 / weightp=2 / keyint=75 / keyint_min=38 / scenecut=0 / intra_refresh=0 / rc_lookahead=40 / rc=cbr / mbtree=1 / bitrate=3072 / ratetol=1.0 / qcomp=0.60 / qpmin=0 / qpmax=69 / qpstep=4 / vbv_maxrate=3072 / vbv_bufsize=640 / nal_hrd=none / filler=0 / ip_ratio=1.40 / aq=1:1.00
Language : English
Default : Yes
Forced : No



Скриншоты:
[+] Всего файлов в раздаче - 1:
Alita_Battle Angel_2019_WEB-DL_1080p.mkv7.02 GB

Показать еще раздачи по запросу алита:
2019-08-11 U Алита: Боевой ангел / Alita: Battle Angel (2019) UHD BDRip-HEVC 1440p | HDR | D | Локализованная версия | Лицензия 8.90 GB ↑ 33 ↓ 18
2019-08-11 U Алита: Боевой ангел / Alita: Battle Angel (2019) BDRip от MegaPeer | Локализованная версия | Лицензия 748.09 MB ↑ 30 ↓ 7
2019-07-25 U Алита: Боевой ангел / Alita: Battle Angel (2019) BDRip 1080p | 60 fps | Локализованная версия | D, P | Лицензия 8.55 GB ↑ 49 ↓ 53
2019-07-24 U Алита: Боевой ангел / Alita: Battle Angel (2019) WEB-DLRip-HEVC 720p | D | Open Matte 3.14 GB ↑ 27 ↓ 7
2019-07-20 U Алита: Боевой ангел / Alita: Battle Angel (2019) WEB-DLRip от Scarabey | Лицензия | Open Matte 1.45 GB ↑ 73 ↓ 17
2019-07-19 U Алита: Боевой ангел / Alita: Battle Angel (2019) BDRip 720p от Scarabey | Лицензия 6.06 GB ↑ 94 ↓ 70
2019-07-18 U Алита: Боевой ангел / Alita: Battle Angel (2019) BDRip от Twister & ExKinoRay | Локализованная версия | Лицензия 2.18 GB ↑ 61 ↓ 30

Отзывы
Зарегистрируйтесь чтобы добавить комментарий.
Обратная связь
Copyleft ©