↑↓Torrent.by
Поиск
Логин: Регистрация
Пароль: Восстановить пароль
Загрузка...

Красу: Нечеловеческий поцелуй / Krasue: Inhuman Kiss (2019) WEB-DL 1080p от New-Team | L | Bonsai Studio

Скачать krasu-nechelovecheskiy-poceluy-krasue-inhuman-kiss-2019-web-dl-1080p-ot-new-team-l-bonsai-studio.torrent
U Магнитная ссылка Размер: 6.64 GB Раздают: 49 Качают: 21 Добавлен: 2019-07-09 09:16:34
Красу: Нечеловеческий поцелуй / Krasue: Inhuman Kiss (2019) WEB-DL 1080p от New-Team | L | Bonsai Studio

Красу: Нечеловеческий поцелуй
Krasue: Inhuman Kiss

«The body has transformed, but the heart remains the same»

Страна: Таиланд
Жанр:  ужасы, мелодрама, фэнтези
Год выпуска: 2019
Продолжительность: 02:01:58

Перевод: Любительский (многоголосый, закадровый) [Bonsai Studio]
Субтитры: английские, тайские, + другие (см. MediaInfo)
Оригинальная аудиодорожка: тайский

Режиссер: Ситисири Монгколсири / Sitisiri Mongkolsiri

В ролях: Пхантира Пипитьякорн, Оабнитхи Виваттанаваранг, Сапол Ассавамуконг, Сурасак Вонгтхай, Сахатчай Чумрум, Сахайак Бунтханакит, Макорн Супиначарон, Саситхорн Паничнок, Дарина Бунчу, Намнген Буннарк

Описание: В отдаленной деревне жила невинная девочка-подросток «Сай», которая позже обнаружила, что унаследовала проклятие «Красу». Ночью ее голова отделялась от тела и охотилась за плотью и кровью. Сельские жители в ужасе от гибели своего скота начинают охоту на нечто им неведомое...

Релиз:

Релиз, работа со звуком и удаление рекламы: stalkerok

Семпл

Качество видео: WEB-DL 1080p | Исходник: Inhuman.Kiss.2019.1080p.NF.WEB-DL.DDP5.1.x264-Ao
Формат видео: MKV
Видео кодек: AVC
Аудио кодек: AC3
Видео: AVC, 6960 Кбит/сек, 1920x1080 (16:9), 24 кадр/сек
Аудио №1: AC3, 192 Кбит/сек, 48 КГц, 2.0 - русский
Аудио №2: E-AC3, 640 Кбит/сек, 48 КГц, 5.1 - тайский


[+] MediaInfo

General
Unique ID                                : 224308181114421380492729970977594630238 (0xA8C02F2CD6A28D286EC77E490E8F605E)
Complete name                            : C:tempKrasue Inhuman KissKrasue.Inhuman.Kiss.2019.WEB-DL.1080p.Rus.Thai.stalkerok.New-Team.mkv
Format                                   : Matroska
Format version                           : Version 4
File size                                : 6.64 GiB
Duration                                 : 2 h 1 min
Overall bit rate mode                    : Variable
Overall bit rate                         : 7 795 kb/s
Movie name                               : Krasue: Inhuman Kiss (2019) | Release by stalkerok
Encoded date                             : UTC 2019-07-08 14:44:30
Writing application                      : mkvmerge v33.1.0 ('Primrose') 64-bit
Writing library                          : libebml v1.3.7 + libmatroska v1.5.0

Video
ID                                       : 1
Format                                   : AVC
Format/Info                              : Advanced Video Codec
Format profile                           : High@L4
Format settings                          : CABAC / 4 Ref Frames
Format settings, CABAC                   : Yes
Format settings, RefFrames               : 4 frames
Codec ID                                 : V_MPEG4/ISO/AVC
Duration                                 : 2 h 1 min
Bit rate mode                            : Variable
Bit rate                                 : 6 960 kb/s
Maximum bit rate                         : 20.0 Mb/s
Width                                    : 1 920 pixels
Height                                   : 1 080 pixels
Display aspect ratio                     : 16:9
Frame rate mode                          : Constant
Frame rate                               : 24.000 FPS
Color space                              : YUV
Chroma subsampling                       : 4:2:0
Bit depth                                : 8 bits
Scan type                                : Progressive
Bits/(Pixel*Frame)                       : 0.140
Stream size                              : 5.93 GiB (89%)
Title                                    : Inhuman.Kiss.2019.1080p.NF.WEB-DL.DDP5.1.x264-Ao
Writing library                          : x264 core 148 r2715 7e75228
Encoding settings                        : cabac=1 / ref=4 / deblock=1:0:0 / analyse=0x3:0x111 / me=umh / subme=10 / psy=1 / psy_rd=1.00:0.00 / mixed_ref=1 / me_range=120 / chroma_me=1 / trellis=2 / 8x8dct=1 / cqm=0 / deadzone=21,11 / fast_pskip=1 / chroma_qp_offset=-2 / threads=8 / lookahead_threads=2 / sliced_threads=0 / nr=0 / decimate=1 / interlaced=0 / bluray_compat=0 / stitchable=1 / constrained_intra=0 / bframes=16 / b_pyramid=2 / b_adapt=2 / b_bias=0 / direct=3 / weightb=1 / open_gop=0 / weightp=2 / keyint=240 / keyint_min=121 / scenecut=0 / intra_refresh=0 / rc_lookahead=240 / rc=crf / mbtree=1 / crf=16.0 / qcomp=0.50 / qpmin=6 / qpmax=51 / qpstep=4 / vbv_maxrate=20000 / vbv_bufsize=25000 / crf_max=0.0 / nal_hrd=vbr / filler=0 / ip_ratio=1.40 / aq=1:0.80
Default                                  : Yes
Forced                                   : No

Audio #1
ID                                       : 2
Format                                   : AC-3
Format/Info                              : Audio Coding 3
Commercial name                          : Dolby Digital
Codec ID                                 : A_AC3
Duration                                 : 2 h 1 min
Bit rate mode                            : Constant
Bit rate                                 : 192 kb/s
Channel(s)                               : 2 channels
Channel layout                           : L R
Sampling rate                            : 48.0 kHz
Frame rate                               : 31.250 FPS (1536 SPF)
Bit depth                                : 16 bits
Compression mode                         : Lossy
Stream size                              : 168 MiB (2%)
Title                                    : MVO Bonsai Studio
Language                                 : Russian
Service kind                             : Complete Main
Default                                  : Yes
Forced                                   : No

Audio #2
ID                                       : 3
Format                                   : E-AC-3
Format/Info                              : Enhanced AC-3
Commercial name                          : Dolby Digital Plus
Codec ID                                 : A_EAC3
Duration                                 : 2 h 1 min
Bit rate mode                            : Constant
Bit rate                                 : 640 kb/s
Channel(s)                               : 6 channels
Channel layout                           : L R C LFE Ls Rs
Sampling rate                            : 48.0 kHz
Frame rate                               : 31.250 FPS (1536 SPF)
Compression mode                         : Lossy
Stream size                              : 558 MiB (8%)
Title                                    : Thai [Original]
Language                                 : Thai
Service kind                             : Complete Main
Default                                  : No
Forced                                   : No

Text #1
ID                                       : 4
Format                                   : UTF-8
Codec ID                                 : S_TEXT/UTF8
Codec ID/Info                            : UTF-8 Plain Text
Duration                                 : 1 h 55 min
Bit rate                                 : 46 b/s
Count of elements                        : 673
Stream size                              : 39.0 KiB (0%)
Title                                    : Thai
Language                                 : Thai
Default                                  : No
Forced                                   : No

Text #2
ID                                       : 5
Format                                   : UTF-8
Codec ID                                 : S_TEXT/UTF8
Codec ID/Info                            : UTF-8 Plain Text
Duration                                 : 19 min 54 s
Bit rate                                 : 2 b/s
Count of elements                        : 6
Stream size                              : 393 Bytes (0%)
Title                                    : Off
Language                                 : Thai
Default                                  : No
Forced                                   : No

Text #3
ID                                       : 6
Format                                   : UTF-8
Codec ID                                 : S_TEXT/UTF8
Codec ID/Info                            : UTF-8 Plain Text
Duration                                 : 1 h 56 min
Bit rate                                 : 31 b/s
Count of elements                        : 645
Stream size                              : 26.9 KiB (0%)
Title                                    : Arabic
Language                                 : Arabic
Default                                  : No
Forced                                   : No

Text #4
ID                                       : 7
Format                                   : UTF-8
Codec ID                                 : S_TEXT/UTF8
Codec ID/Info                            : UTF-8 Plain Text
Duration                                 : 1 h 56 min
Bit rate                                 : 19 b/s
Count of elements                        : 649
Stream size                              : 16.8 KiB (0%)
Title                                    : German
Language                                 : German
Default                                  : No
Forced                                   : No

Text #5
ID                                       : 8
Format                                   : UTF-8
Codec ID                                 : S_TEXT/UTF8
Codec ID/Info                            : UTF-8 Plain Text
Duration                                 : 1 h 56 min
Bit rate                                 : 17 b/s
Count of elements                        : 654
Stream size                              : 15.2 KiB (0%)
Title                                    : European Spanish
Default                                  : No
Forced                                   : No

Text #6
ID                                       : 9
Format                                   : UTF-8
Codec ID                                 : S_TEXT/UTF8
Codec ID/Info                            : UTF-8 Plain Text
Duration                                 : 2 h 0 min
Bit rate                                 : 17 b/s
Count of elements                        : 637
Stream size                              : 15.7 KiB (0%)
Title                                    : Spanish
Language                                 : Spanish
Default                                  : No
Forced                                   : No

Text #7
ID                                       : 10
Format                                   : UTF-8
Codec ID                                 : S_TEXT/UTF8
Codec ID/Info                            : UTF-8 Plain Text
Duration                                 : 2 h 0 min
Bit rate                                 : 19 b/s
Count of elements                        : 647
Stream size                              : 16.9 KiB (0%)
Title                                    : French
Language                                 : French
Default                                  : No
Forced                                   : No

Text #8
ID                                       : 11
Format                                   : UTF-8
Codec ID                                 : S_TEXT/UTF8
Codec ID/Info                            : UTF-8 Plain Text
Duration                                 : 2 h 0 min
Bit rate                                 : 16 b/s
Count of elements                        : 653
Stream size                              : 14.3 KiB (0%)
Title                                    : Indonesian
Language                                 : Indonesian
Default                                  : No
Forced                                   : No

Text #9
ID                                       : 12
Format                                   : UTF-8
Codec ID                                 : S_TEXT/UTF8
Codec ID/Info                            : UTF-8 Plain Text
Duration                                 : 2 h 0 min
Bit rate                                 : 17 b/s
Count of elements                        : 652
Stream size                              : 15.0 KiB (0%)
Title                                    : Italian
Language                                 : Italian
Default                                  : No
Forced                                   : No

Text #10
ID                                       : 13
Format                                   : UTF-8
Codec ID                                 : S_TEXT/UTF8
Codec ID/Info                            : UTF-8 Plain Text
Duration                                 : 1 h 56 min
Bit rate                                 : 18 b/s
Count of elements                        : 664
Stream size                              : 16.0 KiB (0%)
Title                                    : Japanese
Language                                 : Japanese
Default                                  : No
Forced                                   : No

Text #11
ID                                       : 14
Format                                   : UTF-8
Codec ID                                 : S_TEXT/UTF8
Codec ID/Info                            : UTF-8 Plain Text
Duration                                 : 2 h 0 min
Bit rate                                 : 19 b/s
Count of elements                        : 651
Stream size                              : 17.2 KiB (0%)
Title                                    : Korean
Language                                 : Korean
Default                                  : No
Forced                                   : No

Text #12
ID                                       : 15
Format                                   : UTF-8
Codec ID                                 : S_TEXT/UTF8
Codec ID/Info                            : UTF-8 Plain Text
Duration                                 : 1 h 56 min
Bit rate                                 : 18 b/s
Count of elements                        : 645
Stream size                              : 15.9 KiB (0%)
Title                                    : Malay
Language                                 : Malay
Default                                  : No
Forced                                   : No

Text #13
ID                                       : 16
Format                                   : UTF-8
Codec ID                                 : S_TEXT/UTF8
Codec ID/Info                            : UTF-8 Plain Text
Duration                                 : 2 h 0 min
Bit rate                                 : 18 b/s
Count of elements                        : 651
Stream size                              : 16.2 KiB (0%)
Title                                    : Brazilian Portuguese
Default                                  : No
Forced                                   : No

Text #14
ID                                       : 17
Format                                   : UTF-8
Codec ID                                 : S_TEXT/UTF8
Codec ID/Info                            : UTF-8 Plain Text
Duration                                 : 1 h 56 min
Bit rate                                 : 17 b/s
Count of elements                        : 645
Stream size                              : 15.2 KiB (0%)
Title                                    : Portuguese
Language                                 : Portuguese
Default                                  : No
Forced                                   : No

Text #15
ID                                       : 18
Format                                   : UTF-8
Codec ID                                 : S_TEXT/UTF8
Codec ID/Info                            : UTF-8 Plain Text
Duration                                 : 1 h 56 min
Bit rate                                 : 22 b/s
Count of elements                        : 652
Stream size                              : 19.1 KiB (0%)
Title                                    : Vietnamese
Language                                 : Vietnamese
Default                                  : No
Forced                                   : No

Text #16
ID                                       : 19
Format                                   : UTF-8
Codec ID                                 : S_TEXT/UTF8
Codec ID/Info                            : UTF-8 Plain Text
Duration                                 : 1 h 56 min
Bit rate                                 : 16 b/s
Count of elements                        : 652
Stream size                              : 13.9 KiB (0%)
Title                                    : Simplified Chinese
Default                                  : No
Forced                                   : No

Text #17
ID                                       : 20
Format                                   : UTF-8
Codec ID                                 : S_TEXT/UTF8
Codec ID/Info                            : UTF-8 Plain Text
Duration                                 : 1 h 56 min
Bit rate                                 : 16 b/s
Count of elements                        : 673
Stream size                              : 14.0 KiB (0%)
Title                                    : Traditional Chinese
Default                                  : No
Forced                                   : No

Text #18
ID                                       : 21
Format                                   : UTF-8
Codec ID                                 : S_TEXT/UTF8
Codec ID/Info                            : UTF-8 Plain Text
Duration                                 : 1 h 56 min
Bit rate                                 : 24 b/s
Count of elements                        : 913
Stream size                              : 20.7 KiB (0%)
Title                                    : English
Language                                 : English
Default                                  : No
Forced                                   : No




Скриншоты:
[+] Всего файлов в раздаче - 1:
Krasue.Inhuman.Kiss.2019.WEB-DL.1080p.Rus.Thai.stalkerok.New-Team.mkv6.64 GB

Похожие раздачи по запросу - красу:
2019-07-08 U Красу: Нечеловеческий поцелуй / Krasue: Inhuman Kiss (2019) WebRip 720p | Bonsai 2.31 GB ↑ 83 ↓ 26
2019-07-08 U Красу: Нечеловеческий поцелуй / Krasue: Inhuman Kiss (2019) WebRip 1080p | Bonsai 4.48 GB ↑ 139 ↓ 48
2019-07-08 U Красу: Нечеловеческий поцелуй / Krasue: Inhuman Kiss (2019) WebRip | Bonsai 1.14 GB ↑ 195 ↓ 49

Отзывы
Зарегистрируйтесь чтобы добавить комментарий.
Обратная связь
Copyleft ©