↑↓Torrent.by
Поиск
Логин: Регистрация
Пароль: Восстановить пароль
Загрузка...

Хеллбой / Hellboy (2019) WEB-DLRip-AVC от New-Team | Локализованная версия | D

Скачать hellboy-2019-web-dlrip-avc-ot-new-team-lokalizovannaya-versiya-d.torrent
U Магнитная ссылка Размер: 1.44 GB Раздают: 78 Качают: 41 Добавлен: 2019-07-09 14:35:21
Хеллбой / Hellboy (2019) WEB-DLRip-AVC от New-Team | Локализованная версия | D

Хеллбой
Hellboy

«Легенда возвращается»

Страна: США, Великобритания, Болгария
Жанр:  фэнтези, боевик, приключения
Год выпуска: 2019
Продолжительность: 02:00:47

Перевод: Профессиональный (полное дублирование) [iTunes]
Субтитры: русские (форсированные)
Оригинальная аудиодорожка: нет

Режиссер: Нил Маршалл / Neil Marshall

В ролях: Дэвид Харбор, Иэн Макшейн, Милла Йовович, Саша Лэйн, Дэниэл Дэ Ким, Алистэр Петри, Софи Оконедо, Брин Глисон, Томас Хейден Чёрч, Стивен Грэм

Описание: Близится час битвы Хеллбоя с Кровавой королевой, жаждущей отомстить всему человечеству за века в заточении. Оказавшись в эпицентре столкновения миров людей и монстров, Хеллбою придется пройти через ад, чтобы предотвратить надвигающийся апокалипсис.

Релиз:

Автор рипа: stalkerok

Семпл

Качество видео: WEB-DLRip-AVC | Исходник: HELLBOY_2019_WEB_DL_1080p-BLUEBIRD
Формат видео: MKV
Видео кодек: AVC
Аудио кодек: AC3
Видео: AVC, 1323 Кбит/сек, 1038x432 (2.40:1), 23,976 кадр/сек
Аудио: AC3, 384 Кбит/сек, 48 КГц, 5.1 - русский
Навигация по главам: есть


[+] x264/MediaInfo


---[Information] [09.07.2019 10:54:36] x264 [info]: frame I:1566  Avg QP:17.22  size: 37928
---[Information] [09.07.2019 10:54:36] x264 [info]: frame P:44851 Avg QP:19.62  size: 13902
---[Information] [09.07.2019 10:54:36] x264 [info]: frame B:127340 Avg QP:21.86  size:  4055

General
Unique ID                                : 331370243525849748071020996914306851766 (0xF94B966456765904B58BB30873DFA3B6)
Complete name                            : C:tempHellboyHellboy.2019.WEB-DLRip.x264.Rus.stalkerok.New-Team.mkv
Format                                   : Matroska
Format version                           : Version 4 / Version 2
File size                                : 1.44 GiB
Duration                                 : 2 h 0 min
Overall bit rate                         : 1 711 kb/s
Movie name                               : Hellboy (2019) | Rip by stalkerok
Encoded date                             : UTC 2019-07-09 08:24:52
Writing application                      : mkvmerge v33.1.0 ('Primrose') 64-bit
Writing library                          : libebml v1.3.7 + libmatroska v1.5.0
Cover                                    : Yes
Attachments                              : cover.png

Video
ID                                       : 1
Format                                   : AVC
Format/Info                              : Advanced Video Codec
Format profile                           : High@L4.1
Format settings, CABAC                   : Yes
Format settings, ReFrames                : 12 frames
Codec ID                                 : V_MPEG4/ISO/AVC
Duration                                 : 2 h 0 min
Bit rate                                 : 1 324 kb/s
Width                                    : 1 038 pixels
Height                                   : 432 pixels
Display aspect ratio                     : 2.40:1
Frame rate mode                          : Constant
Frame rate                               : 23.976 FPS
Color space                              : YUV
Chroma subsampling                       : 4:2:0
Bit depth                                : 8 bits
Scan type                                : Progressive
Bits/(Pixel*Frame)                       : 0.123
Stream size                              : 1.12 GiB (77%)
Title                                    : Hellboy (2019) | Rip by stalkerok
Writing library                          : x264 core 157 r2945 72db437
Encoding settings                        : cabac=1 / ref=12 / deblock=1:-3:-2 / analyse=0x3:0x133 / me=umh / subme=10 / psy=1 / psy_rd=1.00:0.00 / mixed_ref=1 / me_range=32 / chroma_me=1 / trellis=2 / 8x8dct=1 / cqm=0 / deadzone=21,11 / fast_pskip=0 / chroma_qp_offset=-2 / threads=12 / lookahead_threads=3 / sliced_threads=0 / nr=0 / decimate=1 / interlaced=0 / bluray_compat=0 / constrained_intra=0 / bframes=14 / b_pyramid=2 / b_adapt=2 / b_bias=0 / direct=3 / weightb=1 / open_gop=0 / weightp=2 / keyint=240 / keyint_min=23 / scenecut=40 / intra_refresh=0 / rc_lookahead=60 / rc=crf / mbtree=0 / crf=20.1 / qcomp=0.65 / qpmin=0 / qpmax=69 / qpstep=4 / vbv_maxrate=50000 / vbv_bufsize=62500 / crf_max=0.0 / nal_hrd=none / filler=0 / ip_ratio=1.40 / pb_ratio=1.30 / aq=3:0.90 / zones=155481,159304,q=34/161641,172711,q=34
Default                                  : Yes
Forced                                   : No

Audio
ID                                       : 2
Format                                   : AC-3
Format/Info                              : Audio Coding 3
Mode extension                           : CM (complete main)
Format settings, Endianness              : Big
Codec ID                                 : A_AC3
Duration                                 : 2 h 0 min
Bit rate mode                            : Constant
Bit rate                                 : 384 kb/s
Channel(s)                               : 6 channels
Channel positions                        : Front: L C R, Side: L R, LFE
Sampling rate                            : 48.0 kHz
Frame rate                               : 31.250 FPS (1536 spf)
Compression mode                         : Lossy
Stream size                              : 332 MiB (22%)
Title                                    : Dub
Language                                 : Russian
Default                                  : Yes
Forced                                   : No

Text
ID                                       : 3
Format                                   : UTF-8
Codec ID                                 : S_TEXT/UTF8
Codec ID/Info                            : UTF-8 Plain Text
Duration                                 : 1 h 31 min
Bit rate                                 : 0 b/s
Count of elements                        : 8
Stream size                              : 536 Bytes (0%)
Title                                    : Forced
Language                                 : Russian
Default                                  : Yes
Forced                                   : No

Menu
00:00:00.000                             : en:1
00:02:41.000                             : en:2
00:14:28.000                             : en:3
00:26:36.000                             : en:4
00:35:34.000                             : en:5
00:43:37.000                             : en:6
00:55:01.000                             : en:7
01:02:12.000                             : en:8
01:12:04.000                             : en:9
01:25:54.000                             : en:10
01:34:17.000                             : en:11
01:48:05.000                             : en:12




Скриншоты:
[+] Всего файлов в раздаче - 1:
Hellboy.2019.WEB-DLRip.x264.Rus.stalkerok.New-Team.mkv1.44 GB

Показать еще раздачи по запросу хеллбой:
Вчера U Хеллбой / Hellboy (2019) HDRip-AVC от ExKinoRay | iTunes, P 2.36 GB ↑ 108 ↓ 50
Вчера U Хеллбой / Hellboy (2019) BDRip 1080p от селезень | D, P | iTunes 11.33 GB ↑ 85 ↓ 34
2019-07-17 U Хеллбой / Hellboy (2019) UHD BDRip 1080p от селезень | D, P | iTunes 2К11.01 GB ↑ 133 ↓ 98
2019-07-17 U Хеллбой / Hellboy (2019) HDRip-AVC от ExKinoRay | iTunes, P 2.36 GB ↑ 445 ↓ 26
2019-07-10 U Хеллбой / Hellboy (2019) WEBRip-HEVC 2160p | 4K | HDR | D, P | iTunes 12.28 GB ↑ 221 ↓ 93
2019-07-09 U Хеллбой / Hellboy (2019) WEB-DLRip-AVC от ExKinoRay | iTunes 2.12 GB ↑ 215 ↓ 140
2019-07-09 U Хеллбой / Hellboy (2019) WEB-DL 720p от селезень | Локализованная версия | D, P | iTunes 4.21 GB ↑ 163 ↓ 80

Отзывы
Зарегистрируйтесь чтобы добавить комментарий.
Обратная связь
Copyleft ©