↑↓Torrent.by
Поиск
Логин: Регистрация
Пароль: Восстановить пароль
Загрузка...

Хеллбой / Hellboy (2019) WEBRip-HEVC 2160p | 4K | HDR | D, P | iTunes

Скачать hellboy-2019-webrip-hevc-2160p-4k-hdr-d-p-itunes.torrent
U Магнитная ссылка Размер: 12.28 GB Раздают: 221 Качают: 92 Добавлен: 2019-07-10 07:20:06
Хеллбой / Hellboy (2019) WEBRip-HEVC 2160p | 4K | HDR | D, P | iTunes

Название: Хеллбой
Оригинальное название: Hellboy
Год выхода: 2019
Жанр: Фэнтези, боевик, приключения
Режиссер: Нил Маршалл
В ролях: Дэвид Харбор, Иэн МакШейн, Милла Йовович, Саша Лэйн, Дэниэл Дэ Ким, Алистэр Петри, Софи Оконедо, Томас Хейден Чёрч, Марк Стэнли, Брин Глисон, Надя Керанова, Мария Тепавичарова, Ана Тобакова, Пенелопа Митчелл, Терри Рендал, Стивен Грэм, Марио де ла Роса, Ванесса Эйчхольц

О фильме:
Близится час битвы Хеллбоя с Кровавой королевой, жаждущей отомстить всему человечеству за века в заточении. Оказавшись в эпицентре столкновения миров людей и монстров, Хеллбою придется пройти через ад, чтобы предотвратить надвигающийся апокалипсис.

Страна: США
Студия: Summit Entertainment, Millennium Films, Campbell Grobman Films
Продолжительность: 02:01:00
Перевод: Дублированный | iTunes, Профессиональный многоголосый | СВ Студия -ненормативная лексика

Файл
Качество: WEBRip-HEVC 2160p | 4K | HDR
Видео: HEVC/H.265, HDR, 3840x2160, ~13,3 Mbps, 23.976 fps
Звук:
Аудио 1: AC3, 6 ch, 384 Kbps - Русский (DUB)
Аудио 2: AC3, 2 ch, 192 Kbps - Русский (MVO СВ Студия)
Аудио 3: AC3, 6 ch, 640 Kbps - Английский
Субтитры: Русские (Focs ненормативная лексика), Английские


[+] Mediainfo
General
Unique ID                      : 103739590382302254660543871664815330118 (0x4E0B84B2D1E0F51ACF25E447D747D346)
Complete name                  : Hellboy.2019.WEB-DL.HDR.2160p.mkv
Format                         : Matroska
Format version                 : Version 4
File size                      : 12.3 GiB
Duration                       : 2 h 1 min
Overall bit rate               : 14.5 Mb/s
Encoded date                   : UTC 2019-07-09 10:50:14
Writing application            : mkvmerge v23.0.0 ('The Bride Said No') 64-bit
Writing library                : libebml v1.3.6 + libmatroska v1.4.9

Video
ID                             : 1
Format                         : HEVC
Format/Info                    : High Efficiency Video Coding
Commercial name                : HDR10
Format profile                 : Main 10@L5@High
Codec ID                       : V_MPEGH/ISO/HEVC
Duration                       : 2 h 1 min
Bit rate                       : 13.3 Mb/s
Width                          : 3 840 pixels
Height                         : 1 608 pixels
Original height                : 2 160 pixels
Display aspect ratio           : 16:9
Frame rate mode                : Constant
Frame rate                     : 23.976 (23976/1000) FPS
Color space                    : YUV
Chroma subsampling             : 4:2:0 (Type 2)
Bit depth                      : 10 bits
Bits/(Pixel*Frame)             : 0.090
Stream size                    : 11.2 GiB (92%)
Writing library                : x265 3.0:[Linux][GCC 4.8.3][64 bit] 10bit
Encoding settings              : cpuid=1111039 / frame-threads=1 / wpp / no-pmode / no-pme / no-psnr / no-ssim / log-level=2 / input-csp=1 / input-res=3840x2160 / interlace=0 / total-frames=0 / level-idc=50 / high-tier=1 / uhd-bd=0 / ref=4 / no-allow-non-conformance / repeat-headers / annexb / aud / hrd / info / hash=0 / no-temporal-layers / no-open-gop / min-keyint=96 / keyint=96 / gop-lookahead=0 / bframes=8 / b-adapt=2 / b-pyramid / bframe-bias=0 / rc-lookahead=25 / lookahead-slices=1 / scenecut=40 / radl=0 / no-splice / no-intra-refresh / ctu=64 / min-cu-size=8 / rect / no-amp / max-tu-size=32 / tu-inter-depth=1 / tu-intra-depth=1 / limit-tu=0 / rdoq-level=2 / dynamic-rd=0.00 / no-ssim-rd / signhide / no-tskip / nr-intra=0 / nr-inter=0 / no-constrained-intra / strong-intra-smoothing / max-merge=3 / limit-refs=3 / limit-modes / me=3 / subme=3 / merange=57 / temporal-mvp / weightp / no-weightb / no-analyze-src-pics / deblock=0:0 / sao / no-sao-non-deblock / rd=4 / no-early-skip / rskip / no-fast-intra / no-tskip-fast / no-cu-lossless / no-b-intra / no-splitrd-skip / rdpenalty=0 / psy-rd=2.00 / psy-rdoq=1.00 / no-rd-refine / no-lossless / cbqpoffs=0 / crqpoffs=0 / rc=abr / bitrate=13446 / qcomp=0.60 / qpstep=4 / stats-write=1 / stats-read=2 / cplxblur=20.0 / qblur=0.5 / vbv-maxrate=16135 / vbv-bufsize=40338 / vbv-init=0.9 / ipratio=1.40 / pbratio=1.30 / aq-mode=2 / aq-strength=1.00 / cutree / zone-count=0 / no-strict-cbr / qg-size=32 / no-rc-grain / qpmax=69 / qpmin=0 / no-const-vbv / sar=1 / overscan=0 / videoformat=5 / range=0 / colorprim=9 / transfer=16 / colormatrix=9 / chromaloc=1 / chromaloc-top=2 / chromaloc-bottom=2 / display-window=0 / master-display=G(13250,34500)B(7500,3000)R(34000,16000)WP(15635,16450)L(40000000,50) / max-cll=0,0 / min-luma=0 / max-luma=1023 / log2-max-poc-lsb=8 / vui-timing-info / vui-hrd-info / slices=1 / no-opt-qp-pps / no-opt-ref-list-length-pps / no-multi-pass-opt-rps / scenecut-bias=0.05 / no-opt-cu-delta-qp / no-aq-motion / hdr / hdr-opt / no-dhdr10-opt / no-idr-recovery-sei / analysis-reuse-level=5 / scale-factor=0 / refine-intra=0 / refine-inter=0 / refine-mv=0 / refine-ctu-distortion=0 / no-limit-sao / ctu-info=0 / no-lowpass-dct / refine-analysis-type=0 / copy-pic=1 / max-ausize-factor=1.0 / no-dynamic-refine / no-single-sei / no-hevc-aq / qp-adaptation-range=1.00
Language                       : English
Default                        : Yes
Forced                         : No
Color range                    : Limited
Color primaries                : BT.2020
Transfer characteristics       : PQ
Matrix coefficients            : BT.2020 non-constant
Mastering display color primar : Display P3
Mastering display luminance    : min: 0.0050 cd/m2, max: 4000 cd/m2

Audio #1
ID                             : 2
Format                         : AC-3
Format/Info                    : Audio Coding 3
Commercial name                : Dolby Digital
Codec ID                       : A_AC3
Duration                       : 2 h 1 min
Bit rate mode                  : Constant
Bit rate                       : 384 kb/s
Channel(s)                     : 6 channels
Channel layout                 : L R C LFE Ls Rs
Sampling rate                  : 48.0 kHz
Frame rate                     : 31.250 FPS (1536 SPF)
Bit depth                      : 16 bits
Compression mode               : Lossy
Stream size                    : 332 MiB (3%)
Title                          : DUB | iTunes
Language                       : Russian
Service kind                   : Complete Main
Default                        : Yes
Forced                         : No

Audio #2
ID                             : 3
Format                         : AC-3
Format/Info                    : Audio Coding 3
Commercial name                : Dolby Digital
Codec ID                       : A_AC3
Duration                       : 2 h 0 min
Bit rate mode                  : Constant
Bit rate                       : 192 kb/s
Channel(s)                     : 2 channels
Channel layout                 : L R
Sampling rate                  : 48.0 kHz
Frame rate                     : 31.250 FPS (1536 SPF)
Bit depth                      : 16 bits
Compression mode               : Lossy
Stream size                    : 166 MiB (1%)
Title                          : MVO | CВ Студия
Language                       : Russian
Service kind                   : Complete Main
Default                        : No
Forced                         : No

Audio #3
ID                             : 4
Format                         : AC-3
Format/Info                    : Audio Coding 3
Commercial name                : Dolby Digital
Codec ID                       : A_AC3
Duration                       : 2 h 1 min
Bit rate mode                  : Constant
Bit rate                       : 640 kb/s
Channel(s)                     : 6 channels
Channel layout                 : L R C LFE Ls Rs
Sampling rate                  : 48.0 kHz
Frame rate                     : 31.250 FPS (1536 SPF)
Bit depth                      : 16 bits
Compression mode               : Lossy
Stream size                    : 554 MiB (4%)
Language                       : English
Service kind                   : Complete Main
Default                        : No
Forced                         : No

Text #1
ID                             : 5
Format                         : UTF-8
Codec ID                       : S_TEXT/UTF8
Codec ID/Info                  : UTF-8 Plain Text
Duration                       : 2 h 0 min
Bit rate                       : 84 b/s
Count of elements              : 1547
Stream size                    : 74.3 KiB (0%)
Title                          : Full (Focs)
Language                       : Russian
Default                        : No
Forced                         : No

Text #2
ID                             : 6
Format                         : UTF-8
Codec ID                       : S_TEXT/UTF8
Codec ID/Info                  : UTF-8 Plain Text
Duration                       : 2 h 0 min
Bit rate                       : 51 b/s
Count of elements              : 1527
Stream size                    : 45.0 KiB (0%)
Language                       : English
Default                        : No
Forced                         : No

Text #3
ID                             : 7
Format                         : UTF-8
Codec ID                       : S_TEXT/UTF8
Codec ID/Info                  : UTF-8 Plain Text
Duration                       : 2 h 0 min
Bit rate                       : 60 b/s
Count of elements              : 1900
Stream size                    : 53.2 KiB (0%)
Title                          : SDH
Language                       : English
Default                        : No
Forced                         : No

Menu
00:00:00.000                   : en:1
00:02:41.000                   : en:2
00:14:28.000                   : en:3
00:26:36.000                   : en:4
00:35:34.000                   : en:5
00:43:37.000                   : en:6
00:55:01.000                   : en:7
01:02:12.000                   : en:8
01:12:04.000                   : en:9
01:25:54.000                   : en:10
01:34:17.000                   : en:11
01:48:05.000                   : en:12



Скриншоты:
[+] Всего файлов в раздаче - 1:
Hellboy.2019.WEB-DL.HDR.2160p.mkv12.28 GB

Показать еще раздачи по запросу хеллбой:
2019-07-10 U Хеллбой / Hellboy (2019) WEB-DLRip-AVC | D | iTunes 1.08 GB ↑ 27 ↓ 13
2019-07-09 U Хеллбой / Hellboy (2019) WEB-DLRip-AVC от New-Team | Локализованная версия | D 1.44 GB ↑ 77 ↓ 40
2019-07-09 U Хеллбой / Hellboy (2019) WEB-DLRip-AVC от ExKinoRay | iTunes 2.12 GB ↑ 214 ↓ 139
2019-07-09 U Хеллбой / Hellboy (2019) WEB-DL 720p от селезень | Локализованная версия | D, P | iTunes 4.21 GB ↑ 152 ↓ 78
2019-07-09 U Хеллбой / Hellboy (2019) WEB-DL 1080p от селезень | Локализованная версия | D, P | iTunes 4.64 GB ↑ 1033 ↓ 634
2019-07-05 U Хеллбой / Hellboy (2019) WEBRip-AVC | СВ Студия 2.05 GB ↑ 199 ↓ 113
2018-12-22 U Хеллбой / Hellboy (2019) HDRip 1080p | Трейлер 909.43 MB ↑ 174 ↓ 60

Отзывы
Зарегистрируйтесь чтобы добавить комментарий.
Обратная связь
Copyleft ©