↑↓Torrent.by
Поиск
Логин: Регистрация
Пароль: Восстановить пароль
Загрузка...

25-й час [01-12 из 12] (2016) HDTVRip от GeneralFilm

Скачать 25-y-chas-01-12-iz-2016-hdtvrip-ot-generalfilm.torrent
U Магнитная ссылка Размер: 6.93 GB Раздают: 59 Качают: 32 Добавлен: 2019-07-10 07:20:31
25-й час [01-12 из 12] (2016) HDTVRip от GeneralFilm

Год выпуска: 2016
Жанр:  Криминал, драма, фантастика
Выпущено: Россия, Украина, Кинокомпания "StarMedia"
Режиссер: Николай Михайлов (III)
В ролях: Антон Хабаров, Татьяна Арнтгольц, Жанна Эппле, Александр Кобзарь, Таисия Шипилова, Николай Иванов (II), Николай Боклан, Виктория Билан, Валерий Сковронский, Сергей Романюк, Фёдор Гуринец, Бесо Гатаев, Вероника Лукьяненко, Константин Самоуков, Пётр Сова, Евгений Капорин, Сергей Сафрончик, Фёдор Годына, Виктория Карпинская, Александр Яцко, Виктория Малекторович, Борис Хвошнянский, Давид Бабаев, Валерий Шептекита, Лариса Кадочникова, Евгений Лебедин, Станислав Боклан, Андрей Дебрин

О фильме: Анна - журналистка, которая обладает даром поворачивать время вспять. Она обладает способностью, которой, возможно, больше нет ни у кого на свете. Эта способность досталась ей, лучшей журналистке популярной в городе газеты "24 часа", во время одного из освещаемых ею происшествий. Анна спасла внука старого часовщика. В знак благодарности старик подарил ей необычные часы, которые, как оказалось, могли "отмотать" время назад на один час, тем самым дав девушке возможность исправить ситуацию. Они включаются каждый раз, когда Анна или близкие ей люди попадают в настоящую беду. Девушка использует свой дар, чтобы предотвращать человеческие трагедии, свидетелем которых так часто приходится становиться журналисту.

Качество: HDTVRip
Видео: XviD, ~ 1600 Кбит/с, 720х400, 25 кадр/с
Аудио: Русский (AC3, 2 ch, 192 Кбит/с)
Продолжительность: 12 x ~ 00:46:00
Перевод: Не требуется
Субтитры: нет

Релиз:


[+] MediaInfo

Общее
Полное имя                               : D:25-j chas.HDTVRip.GeneralFilm�1.25-j chas.HDTVRip.GeneralFilm.avi
Формат                                   : AVI
Формат/Информация                        : Audio Video Interleave
Размер файла                             : 582 Мбайт
Продолжительность                        : 46 м. 1 с.
Общий поток                              : 1768 Кбит/сек

Видео
Идентификатор                            : 0
Формат                                   : MPEG-4 Visual
Профиль формата                          : Advanced Simple@L5
Параметр BVOP формата                    : 1
Параметр QPel формата                    : Нет
Параметр GMC формата                     : Без точки перехода
Параметр матрицы формата                 : Выборочная
Идентификатор кодека                     : XVID
Идентификатор кодека/Подсказка           : XviD
Продолжительность                        : 46 м. 1 с.
Битрейт                                  : 1564 Кбит/сек
Ширина                                   : 720 пикселей
Высота                                   : 400 пикселей
Соотношение сторон                       : 16:9
Частота кадров                           : 25,000 кадров/сек
Цветовое пространство                    : YUV
Субдискретизация насыщенности            : 4:2:0
Битовая глубина                          : 8 бит
Тип развёртки                            : Прогрессивная
Метод сжатия                             : С потерями
Бит/(Пиксели*Кадры)                      : 0.217
Размер потока                            : 515 Мбайт (88%)
Библиотека кодирования                   : XviD 1.2.1 (UTC 2008-12-04)

Аудио
Идентификатор                            : 1
Формат                                   : AC-3
Формат/Информация                        : Audio Coding 3
Расширение режима                        : CM (complete main)
Параметр Endianness формата              : Big
Идентификатор кодека                     : 2000
Продолжительность                        : 46 м. 1 с.
Вид битрейта                             : Постоянный
Битрейт                                  : 192 Кбит/сек
Каналы                                   : 2 канала
Расположение каналов                     : Front: L R
Частота                                  : 48,0 КГц
Частота кадров                           : 31,250 кадров/сек (1536 spf)
Битовая глубина                          : 16 бит
Метод сжатия                             : С потерями
Размер потока                            : 63,2 Мбайт (11%)
Выравнивание                             : Соединение по промежуткам
Продолжительность промежутка             : 32  мс. (0,80 видеокадр)

Общее
Полное имя                               : D:25-j chas.HDTVRip.GeneralFilm�2.25-j chas.HDTVRip.GeneralFilm.avi
Формат                                   : AVI
Формат/Информация                        : Audio Video Interleave
Размер файла                             : 595 Мбайт
Продолжительность                        : 46 м. 17 с.
Общий поток                              : 1796 Кбит/сек
Программа кодирования                    : VirtualDubMod 1.5.10.3 | www.virtualdub-fr.org || (build 2550/release)
Библиотека кодирования                   : VirtualDubMod build 2550/release

Видео
Идентификатор                            : 0
Формат                                   : MPEG-4 Visual
Профиль формата                          : Advanced Simple@L5
Параметр BVOP формата                    : 1
Параметр QPel формата                    : Нет
Параметр GMC формата                     : Без точки перехода
Параметр матрицы формата                 : Выборочная
Идентификатор кодека                     : XVID
Идентификатор кодека/Подсказка           : XviD
Продолжительность                        : 46 м. 17 с.
Битрейт                                  : 1594 Кбит/сек
Ширина                                   : 720 пикселей
Высота                                   : 400 пикселей
Соотношение сторон                       : 16:9
Частота кадров                           : 25,000 кадров/сек
Цветовое пространство                    : YUV
Субдискретизация насыщенности            : 4:2:0
Битовая глубина                          : 8 бит
Тип развёртки                            : Прогрессивная
Метод сжатия                             : С потерями
Бит/(Пиксели*Кадры)                      : 0.221
Размер потока                            : 528 Мбайт (89%)
Библиотека кодирования                   : XviD 1.2.1 (UTC 2008-12-04)

Аудио
Идентификатор                            : 1
Формат                                   : AC-3
Формат/Информация                        : Audio Coding 3
Расширение режима                        : CM (complete main)
Параметр Endianness формата              : Big
Идентификатор кодека                     : 2000
Продолжительность                        : 46 м. 17 с.
Вид битрейта                             : Постоянный
Битрейт                                  : 192 Кбит/сек
Каналы                                   : 2 канала
Расположение каналов                     : Front: L R
Частота                                  : 48,0 КГц
Частота кадров                           : 31,250 кадров/сек (1536 spf)
Битовая глубина                          : 16 бит
Метод сжатия                             : С потерями
Размер потока                            : 63,6 Мбайт (11%)
Выравнивание                             : Разделение по промежуткам
Продолжительность промежутка             : 40  мс. (1,00 видеокадр)
Время предзагрузки промежутка            : 500  мс.




Скриншоты:
[+] Всего файлов в раздаче - 12:
01.25-j chas.HDTVRip.GeneralFilm.avi582.03 MB
02.25-j chas.HDTVRip.GeneralFilm.avi594.63 MB
03.25-j chas.HDTVRip.GeneralFilm.avi591.95 MB
04.25-j chas.HDTVRip.GeneralFilm.avi590.59 MB
05.25-j chas.HDTVRip.GeneralFilm.avi583.56 MB
06.25-j chas.HDTVRip.GeneralFilm.avi596.94 MB
07.25-j chas.HDTVRip.GeneralFilm.avi594.87 MB
08.25-j chas.HDTVRip.GeneralFilm.avi594.97 MB
09.25-j chas.HDTVRip.GeneralFilm.avi583.93 MB
10.25-j chas.HDTVRip.GeneralFilm.avi606.42 MB
11.25-j chas.HDTVRip.GeneralFilm.avi585.53 MB
12.25-j chas.HDTVRip.GeneralFilm.avi591.48 MB

Показать еще раздачи по запросу hdtvrip:
Сегодня U Жена моего мужа (2018) HDTVRip 720p от ExKinoRay 2.62 GB ↑ 89 ↓ 24
Вчера U КВН-2019. Премьер лига. 1/8 финала. Игра первая [21.07] (2019) HDTVRip от GeneralFilm 1,011.85 MB ↑ 525 ↓ 119
2019-07-20 U Идиократия / Idiocracy (2006) HDTVRip 720p | P 3К3.50 GB ↑ 34 ↓ 17
2019-07-19 U Крылья империи [01-12 из 12] (2017) HDTVRip-AVC от Files-x 9.64 GB ↑ 56 ↓ 81
2019-07-19 U Крылья империи [01-12 из 12] (2017) HDTVRip 720p от GeneralFilm 16.23 GB ↑ 37 ↓ 49
2019-07-19 U Крылья империи [01-12 из 12] (2017) HDTVRip от GeneralFilm 7.84 GB ↑ 81 ↓ 81
2019-07-18 U Крылья империи [01-10 из 12] (2017) HDTVRip от GeneralFilm 6.52 GB ↑ 50 ↓ 63

Отзывы
Зарегистрируйтесь чтобы добавить комментарий.
Обратная связь
Copyleft ©