↑↓Torrent.by
Поиск
Логин: Регистрация
Пароль: Восстановить пароль
Загрузка...

Рождённый стать королем / The Kid Who Would Be King (2019) BDRip 1080p | Лицензия

Скачать rozhdennyy-stat-korolem-the-kid-who-would-be-king-2019-bdrip-1080p-licenziya.torrent
U Магнитная ссылка Размер: 14.12 GB Раздают: 35 Качают: 18 Добавлен: 2019-07-10 07:20:56
Рождённый стать королем / The Kid Who Would Be King (2019) BDRip 1080p | Лицензия

«Зло будет наказано»

Название: Рождённый стать королем
Оригинальное название: The Kid Who Would Be King
Год выхода: 2019
Жанр: Фэнтези, боевик, приключения, семейный
Режиссер: Джо Корниш
В ролях: Луис Эшборн Серкис, Денис Гоф, Дин Чаму, Том Тейлор, Рианна Доррис, Нэйтан Стюарт-Джарретт, Нома Думезвени, Ребекка Фергюсон (II), Марк Боннар, Энгус Имри

О фильме:
Повседневные проблемы 12-летнего Алекса отходят на второй план после того, как он находит легендарный Экскалибур. И теперь, когда меч короля Артура оказывается в руках самого неудачливого подростка в Британии, начинается грандиозное приключение, в ходе которого Алекс и его друзья должны остановить злую средневековую волшебницу Моргану и не дать ей уничтожить мир.

Страна: Великобритания, США
Студия: Big Talk Productions, Working Title Films
Продолжительность: 02:00:08
Перевод:
     • Профессиональный (полное дублирование) | Лицензия | Blu-ray EUR

Файл
Качество: BDRip 1080p
Формат: MKV
Кодек: MPEG-4 AVC
Видео: 1920x804 (2,40:1), 23,976 fps, MPEG-4 AVC ~ 14,5 Мbps avg, 0.392 bit/pixel
Аудио:  DTS, 48 kHz, 6 ch, ~768.00 kbps avg | русский | Blu-ray EUR
Аудио:  AC3, 48 kHz, 6 ch, ~448.00 kbps avg | русский | Blu-ray EUR
Аудио:  AC3, 48 kHz, 6 ch, ~448.00 kbps avg | украинский | Blu-ray EUR
Аудио:  AC3, 48 kHz, 6 ch, ~640.00.00 kbps avg | английский | Оригинал

Субтитры: Русские (forced, full), украинские (forced, full), английские (full, SDH)


[+] Инфо-файл
Общее
Уникальный идентификатор                 : 287516399393911260492678245142829628076 (0xD84DA4F177E078ABD9DEFCEACEAE7AAC)
Полное имя                               : The.Kid.Who.Would.Be.King.2019.1080p.BluRay.DTS.5.1.x264.Rus.Ukr.Eng.mkv
Формат                                   : Matroska
Версия формата                           : Version 4 / Version 2
Размер файла                             : 14,1 Гбайт
Продолжительность                        : 2 ч. 0 м.
Общий поток                              : 16,8 Мбит/сек
Название фильма                          : Рождённый стать королем / The Kid Who Would Be King (2019)
Дата кодирования                         : UTC 2019-07-09 13:31:06
Программа кодирования                    : mkvmerge v27.0.0 ('Metropolis') 64-bit
Библиотека кодирования                   : libebml v1.3.6 + libmatroska v1.4.9
Обложка                                  : Yes
Attachments                              : cover.jpg

Видео
Идентификатор                            : 1
Формат                                   : AVC
Формат/Информация                        : Advanced Video Codec
Профиль формата                          : High@L4.1
Настройки формата                        : CABAC / 5 Ref Frames
Параметр CABAC формата                   : Да
Параметр RefFrames формата               : 5 кадров
Идентификатор кодека                     : V_MPEG4/ISO/AVC
Продолжительность                        : 2 ч. 0 м.
Битрейт                                  : 14,5 Мбит/сек
Ширина                                   : 1920 пикселей
Высота                                   : 804 пикселя
Соотношение сторон                       : 2,40:1
Режим частоты кадров                     : Постоянный
Частота кадров                           : 23,976 (24000/1001) кадра/сек
Цветовое пространство                    : YUV
Субдискретизация насыщенности            : 4:2:0
Битовая глубина                          : 8 бит
Тип развёртки                            : Прогрессивная
Бит/(Пиксели*Кадры)                      : 0.392
Размер потока                            : 12,2 Гбайт (86%)
Заголовок                                : The.Kid.Who.Would.Be.King.2019.1080p.BluRay.DTS.5.1.x264.Rus.Ukr.Eng
Библиотека кодирования                   : x264 core 157 r2867+103 0d6443f t_mod_Custom_2 [8-bit@all X86_64]
Настройки программы                      : cabac=1 / ref=5 / deblock=1:-3:-3 / analyse=0x3:0x133 / me=umh / subme=10 / psy=1 / fade_compensate=0.00 / psy_rd=1.00:0.00 / mixed_ref=1 / me_range=32 / chroma_me=1 / trellis=2 / 8x8dct=1 / cqm=0 / deadzone=21,11 / fast_pskip=0 / chroma_qp_offset=-2 / threads=12 / lookahead_threads=2 / sliced_threads=0 / nr=0 / decimate=0 / interlaced=0 / bluray_compat=0 / constrained_intra=0 / fgo=0 / bframes=8 / b_pyramid=2 / b_adapt=2 / b_bias=0 / direct=3 / weightb=1 / open_gop=0 / weightp=2 / keyint=250 / keyint_min=23 / scenecut=40 / intra_refresh=0 / rc=crf / mbtree=0 / crf=16.3000 / qcomp=0.60 / qpmin=0:0:0 / qpmax=69:69:69 / qpstep=4 / ip_ratio=1.35 / pb_ratio=1.25 / aq=3:0.85 / aq-sensitivity=10.00 / aq-factor=1.00:1.00:1.00 / aq2=0 / aq3=0 / zones=24,527,crf=14.4/888,1041,crf=14.5/70723,70851,crf=14.9/71459,72545,crf=15.1/80254,81079,crf=15.1/81570,88458,crf=14.4/88525,89241,crf=15/107949,108543,crf=15.2/110447,110757,crf=14.8/163579,163750,crf=14.8
Язык                                     : English
Default                                  : Да
Forced                                   : Нет

Аудио #1
Идентификатор                            : 2
Формат                                   : DTS
Формат/Информация                        : Digital Theater Systems
Идентификатор кодека                     : A_DTS
Продолжительность                        : 2 ч. 0 м.
Вид битрейта                             : Постоянный
Битрейт                                  : 768 Кбит/сек
Каналы                                   : 6 каналов
Расположение каналов                     : Front: L C R, Side: L R, LFE
Частота                                  : 48,0 КГц
Частота кадров                           : 93,750 кадра/сек (512 SPF)
Битовая глубина                          : 24 бит
Метод сжатия                             : С потерями
Размер потока                            : 660 Мбайт (5%)
Заголовок                                : Blu-ray EUR
Язык                                     : Russian
Default                                  : Да
Forced                                   : Да

Аудио #2
Идентификатор                            : 3
Формат                                   : AC-3
Формат/Информация                        : Audio Coding 3
Идентификатор кодека                     : A_AC3
Продолжительность                        : 2 ч. 0 м.
Вид битрейта                             : Постоянный
Битрейт                                  : 448 Кбит/сек
Каналы                                   : 6 каналов
Расположение каналов                     : Front: L C R, Side: L R, LFE
Частота                                  : 48,0 КГц
Частота кадров                           : 31,250 кадров/сек (1536 SPF)
Битовая глубина                          : 16 бит
Метод сжатия                             : С потерями
Размер потока                            : 385 Мбайт (3%)
Заголовок                                : Blu-ray EUR
Язык                                     : Russian
Default                                  : Нет
Forced                                   : Нет

Аудио #3
Идентификатор                            : 4
Формат                                   : AC-3
Формат/Информация                        : Audio Coding 3
Идентификатор кодека                     : A_AC3
Продолжительность                        : 2 ч. 0 м.
Вид битрейта                             : Постоянный
Битрейт                                  : 448 Кбит/сек
Каналы                                   : 6 каналов
Расположение каналов                     : Front: L C R, Side: L R, LFE
Частота                                  : 48,0 КГц
Частота кадров                           : 31,250 кадров/сек (1536 SPF)
Битовая глубина                          : 16 бит
Метод сжатия                             : С потерями
Размер потока                            : 385 Мбайт (3%)
Заголовок                                : Blu-ray EUR
Язык                                     : Ukrainian
Default                                  : Нет
Forced                                   : Нет

Аудио #4
Идентификатор                            : 5
Формат                                   : AC-3
Формат/Информация                        : Audio Coding 3
Идентификатор кодека                     : A_AC3
Продолжительность                        : 2 ч. 0 м.
Вид битрейта                             : Постоянный
Битрейт                                  : 640 Кбит/сек
Каналы                                   : 6 каналов
Расположение каналов                     : Front: L C R, Side: L R, LFE
Частота                                  : 48,0 КГц
Частота кадров                           : 31,250 кадров/сек (1536 SPF)
Битовая глубина                          : 16 бит
Метод сжатия                             : С потерями
Размер потока                            : 550 Мбайт (4%)
Заголовок                                : Original
Язык                                     : English
Default                                  : Нет
Forced                                   : Нет

Текст #1
Идентификатор                            : 6
Формат                                   : UTF-8
Идентификатор кодека                     : S_TEXT/UTF8
Идентификатор кодека/Информация          : UTF-8 Plain Text
Продолжительность                        : 1 ч. 59 м.
Битрейт                                  : 1 бит/сек
ElementCount                             : 31
Размер потока                            : 1,20 Кбайт (0%)
Заголовок                                : Forced
Язык                                     : Russian
Default                                  : Да
Forced                                   : Да

Текст #2
Идентификатор                            : 7
Формат                                   : UTF-8
Идентификатор кодека                     : S_TEXT/UTF8
Идентификатор кодека/Информация          : UTF-8 Plain Text
Продолжительность                        : 1 ч. 59 м.
Битрейт                                  : 86 бит/сек
ElementCount                             : 1604
Размер потока                            : 75,3 Кбайт (0%)
Заголовок                                : Full
Язык                                     : Russian
Default                                  : Нет
Forced                                   : Нет

Текст #3
Идентификатор                            : 8
Формат                                   : UTF-8
Идентификатор кодека                     : S_TEXT/UTF8
Идентификатор кодека/Информация          : UTF-8 Plain Text
Продолжительность                        : 1 ч. 59 м.
Битрейт                                  : 0 бит/сек
ElementCount                             : 17
Размер потока                            : 642 байт (0%)
Заголовок                                : Forced
Язык                                     : Ukrainian
Default                                  : Нет
Forced                                   : Нет

Текст #4
Идентификатор                            : 9
Формат                                   : UTF-8
Идентификатор кодека                     : S_TEXT/UTF8
Идентификатор кодека/Информация          : UTF-8 Plain Text
Продолжительность                        : 1 ч. 59 м.
Битрейт                                  : 81 бит/сек
ElementCount                             : 1604
Размер потока                            : 71,2 Кбайт (0%)
Заголовок                                : Full
Язык                                     : Ukrainian
Default                                  : Нет
Forced                                   : Нет

Текст #5
Идентификатор                            : 10
Формат                                   : UTF-8
Идентификатор кодека                     : S_TEXT/UTF8
Идентификатор кодека/Информация          : UTF-8 Plain Text
Продолжительность                        : 1 ч. 59 м.
Битрейт                                  : 51 бит/сек
ElementCount                             : 1640
Размер потока                            : 45,2 Кбайт (0%)
Заголовок                                : Full
Язык                                     : English
Default                                  : Нет
Forced                                   : Нет

Текст #6
Идентификатор                            : 11
Формат                                   : UTF-8
Идентификатор кодека                     : S_TEXT/UTF8
Идентификатор кодека/Информация          : UTF-8 Plain Text
Продолжительность                        : 1 ч. 59 м.
Битрейт                                  : 62 бит/сек
ElementCount                             : 2010
Размер потока                            : 54,6 Кбайт (0%)
Заголовок                                : SDH
Язык                                     : English
Default                                  : Нет
Forced                                   : Нет

Меню
00:00:00.000                             : :Chapter 1
00:06:30.015                             : :Chapter 2
00:11:41.200                             : :Chapter 3
00:15:52.869                             : :Chapter 4
00:20:21.762                             : :Chapter 5
00:27:00.410                             : :Chapter 6
00:34:03.959                             : :Chapter 7
00:40:08.239                             : :Chapter 8
00:43:21.182                             : :Chapter 9
00:47:42.735                             : :Chapter 10
00:55:36.291                             : :Chapter 11
00:59:38.325                             : :Chapter 12
01:06:51.216                             : :Chapter 13
01:11:45.551                             : :Chapter 14
01:17:40.614                             : :Chapter 15
01:21:47.903                             : :Chapter 16
01:25:25.537                             : :Chapter 17
01:27:57.772                             : :Chapter 18
01:31:37.033                             : :Chapter 19
01:33:56.881                             : :Chapter 20
01:38:30.780                             : :Chapter 21
01:44:10.995                             : :Chapter 22
01:50:55.357                             : :Chapter 23
01:53:32.848                             : :Chapter 24



Скриншоты:
[+] Всего файлов в раздаче - 1:
The.Kid.Who.Would.Be.King.2019.1080p.BluRay.DTS.5.1.x264.Rus.Ukr.Eng.mkv14.12 GB

Отзывы
Зарегистрируйтесь чтобы добавить комментарий.
Обратная связь
Copyleft ©