↑↓Torrent.by
Поиск
Логин: Регистрация
Пароль: Восстановить пароль
Загрузка...

Алита: Боевой ангел / Alita: Battle Angel (2019) WEB-DL 720p | P

Скачать alita-boevoy-angel-battle-2019-web-dl-720p-p.torrent
U Магнитная ссылка Размер: 4.58 GB Раздают: 29 Качают: 28 Добавлен: 2019-07-10 07:21:19
Алита: Боевой ангел / Alita: Battle Angel (2019) WEB-DL 720p | P

Название: Алита: Боевой ангел
Оригинальное название: Alita: Battle Angel
Год выхода: 2019
Жанр: Фантастика, боевик, триллер, мелодрама, приключения
Режиссер: Роберт Родригес
В ролях: Роза Салазар, Кристоф Вальц, Дженнифер Коннелли, Махершала Али, Эд Скрейн, Джеки Эрл Хейли, Кин Джонсон, Хорхе Лендеборг мл., Лана Кондор, Идара Виктор

О фильме:
Действие фильма происходит через 300 лет после Великой войны в XXVI веке. Доктор Идо находит останки женщины-киборга. После починки киборг ничего не помнит, но обнаруживает, что в состоянии пользоваться боевыми приемами киборгов. Начинаются поиски утерянных воспоминаний.

Страна: Канада, Аргентина, США
Студия: Twentieth Century Fox, Lightstorm Entertainment, Troublemaker Studios
Продолжительность: 02:01:58
Перевод: Профессиональный многоголосый

Файл
Кодек: AVC
Качество: WEB-DL 720p | Alita.Battle.Angel.2019.720p.AMZN.WEB-DL.DDP5.1.H.264-NTG
Видео: MPEG-4 AVC, 4344  Kбит/с, 1248x520, 23.976 кадр/с
Звук: ► Без Рекламы!
Аудио #1:Русский (АС3, 2ch, 192 Кбит/с, 48.0 KHz) Профессиональный (многоголосый, закадровый) HDRezka Studio
Аудио #2:Русский (АС3, 2ch, 192 Кбит/с, 48.0 KHz) Профессиональный (многоголосый, закадровый) СВ Студия
Аудио #3:Английский (E-АС3, 6ch, 640 Кбит/с, 48.0 KHz)
Субтитры: Русские (full-Focs), английские (full, SDH)
[url=https://youtu.be/yZSj8zGnKBY" target="_blank">Трейлер    


[+] MediaInfo
Источник: Alita.Battle.Angel.2019.720p.AMZN.WEB-DL.DDP5.1.H.264-NTG
General
Unique ID                      : 232291032143958449020597394448751827947 (0xAEC1A01E44D6976398DD5096A5149BEB)
Complete name                  : Alita.Battle.Angel.2019.AMZN.WEB-DL.720p.mkv
Format                         : Matroska
Format version                 : Version 4
File size                      : 4.58 GiB
Duration                       : 2 h 1 min
Overall bit rate               : 5 371 kb/s
Encoded date                   : UTC 2019-07-09 17:26:30
Writing application            : mkvmerge v7.1.0 ('Good Love') 64bit built on Jul 27 2014 13:06:55
Writing library                : libebml v1.3.0 + libmatroska v1.4.1

Video
ID                             : 1
Format                         : AVC
Format/Info                    : Advanced Video Codec
Format profile                 : High@L3.1
Format settings                : CABAC / 4 Ref Frames
Format settings, CABAC         : Yes
Format settings, Reference fra : 4 frames
Codec ID                       : V_MPEG4/ISO/AVC
Duration                       : 2 h 1 min
Bit rate mode                  : Constant
Bit rate                       : 4 344 kb/s
Nominal bit rate               : 6 000 kb/s
Width                          : 1 248 pixels
Height                         : 520 pixels
Display aspect ratio           : 2.40:1
Frame rate mode                : Constant
Frame rate                     : 23.976 (24000/1001) FPS
Color space                    : YUV
Chroma subsampling             : 4:2:0
Bit depth                      : 8 bits
Scan type                      : Progressive
Bits/(Pixel*Frame)             : 0.279
Stream size                    : 3.70 GiB (81%)
Language                       : English
Default                        : Yes
Forced                         : No
Color range                    : Limited
Color primaries                : BT.709
Transfer characteristics       : BT.709
Matrix coefficients            : BT.709

Audio #1
ID                             : 2
Format                         : AC-3
Format/Info                    : Audio Coding 3
Commercial name                : Dolby Digital
Codec ID                       : A_AC3
Duration                       : 2 h 1 min
Bit rate mode                  : Constant
Bit rate                       : 192 kb/s
Channel(s)                     : 2 channels
Channel layout                 : L R
Sampling rate                  : 48.0 kHz
Frame rate                     : 31.250 FPS (1536 SPF)
Bit depth                      : 16 bits
Compression mode               : Lossy
Stream size                    : 167 MiB (4%)
Title                          : MVO | HDRezka Studio
Language                       : Russian
Service kind                   : Complete Main
Default                        : Yes
Forced                         : No

Audio #2
ID                             : 3
Format                         : AC-3
Format/Info                    : Audio Coding 3
Commercial name                : Dolby Digital
Codec ID                       : A_AC3
Duration                       : 2 h 1 min
Bit rate mode                  : Constant
Bit rate                       : 192 kb/s
Channel(s)                     : 2 channels
Channel layout                 : L R
Sampling rate                  : 48.0 kHz
Frame rate                     : 31.250 FPS (1536 SPF)
Bit depth                      : 16 bits
Compression mode               : Lossy
Stream size                    : 167 MiB (4%)
Title                          : MVO | СВ Студия
Language                       : Russian
Service kind                   : Complete Main
Default                        : No
Forced                         : No

Audio #3
ID                             : 4
Format                         : E-AC-3
Format/Info                    : Enhanced AC-3
Commercial name                : Dolby Digital Plus
Codec ID                       : A_EAC3
Duration                       : 2 h 1 min
Bit rate mode                  : Constant
Bit rate                       : 640 kb/s
Channel(s)                     : 6 channels
Channel layout                 : L R C LFE Ls Rs
Sampling rate                  : 48.0 kHz
Frame rate                     : 31.250 FPS (1536 SPF)
Compression mode               : Lossy
Stream size                    : 558 MiB (12%)
Language                       : English
Service kind                   : Complete Main
Default                        : No
Forced                         : No

Text #1
ID                             : 5
Format                         : UTF-8
Codec ID                       : S_TEXT/UTF8
Codec ID/Info                  : UTF-8 Plain Text
Duration                       : 1 h 56 min
Bit rate                       : 64 b/s
Count of elements              : 1319
Stream size                    : 55.2 KiB (0%)
Title                          : Focs
Language                       : Russian
Default                        : No
Forced                         : No

Text #2
ID                             : 6
Format                         : UTF-8
Codec ID                       : S_TEXT/UTF8
Codec ID/Info                  : UTF-8 Plain Text
Duration                       : 2 h 0 min
Bit rate                       : 39 b/s
Count of elements              : 1348
Stream size                    : 34.9 KiB (0%)
Language                       : English
Default                        : No
Forced                         : No

Text #3
ID                             : 7
Format                         : UTF-8
Codec ID                       : S_TEXT/UTF8
Codec ID/Info                  : UTF-8 Plain Text
Duration                       : 2 h 0 min
Bit rate                       : 43 b/s
Count of elements              : 1589
Stream size                    : 38.4 KiB (0%)
Title                          : SDH
Language                       : English
Default                        : No
Forced                         : No

Menu
00:00:00.000                   : en:Scene 1
00:00:27.000                   : en:Scene 2
00:05:23.000                   : en:Scene 3
00:13:08.000                   : en:Scene 4
00:18:06.000                   : en:Scene 5
00:23:00.000                   : en:Scene 6
00:25:40.000                   : en:Scene 7
00:33:30.000                   : en:Scene 8
00:36:34.000                   : en:Scene 9
00:37:47.000                   : en:Scene 10
00:38:32.000                   : en:Scene 11
00:41:07.000                   : en:Scene 12
00:45:59.000                   : en:Scene 13
00:48:32.000                   : en:Scene 14
00:52:58.000                   : en:Scene 15
00:55:16.000                   : en:Scene 16
01:02:58.000                   : en:Scene 17
01:10:24.000                   : en:Scene 18
01:16:36.000                   : en:Scene 19
01:18:53.000                   : en:Scene 20
01:22:50.000                   : en:Scene 21
01:24:57.000                   : en:Scene 22
01:28:26.000                   : en:Scene 23
01:36:10.000                   : en:Scene 24
01:38:42.000                   : en:Scene 25
01:43:29.000                   : en:Scene 26
01:44:46.000                   : en:Scene 27
01:51:45.000                   : en:Scene 28
01:54:31.000                   : en:Scene 29
01:56:53.000                   : en:Scene 30
01:56:56.000                   : en:Scene 31



Скриншоты:
[+] Всего файлов в раздаче - 1:
Alita.Battle.Angel.2019.AMZN.WEB-DL.720p.mkv4.58 GB

Показать еще раздачи по запросу алита:
Вчера U Алита: Боевой ангел / Alita: Battle Angel (2019) BDRip от Twister & ExKinoRay | Локализованная версия | Лицензия 2.18 GB ↑ 64 ↓ 26
Вчера U Алита: Боевой ангел / Alita: Battle Angel (2019) Blu-Ray EUR 1080p | 3D-Video | Лицензия 44.69 GB ↑ 36 ↓ 10
Вчера U Алита: Боевой ангел / Alita: Battle Angel (2019) BDRip-AVC от HELLYWOOD | Локализованная версия | Лицензия 2.91 GB ↑ 75 ↓ 15
2019-07-17 U Алита: Боевой ангел / Alita: Battle Angel (2019) BDRip-AVC от HELLYWOOD | Локализованная версия | Лицензия 1.46 GB ↑ 57 ↓ 29
2019-07-16 U Алита: Боевой ангел / Alita: Battle Angel (2019) UHD BDRemux 2160p от ExKinoRay | 4K | HDR | D, P | Локализованная версия | Лицензия 41.88 GB ↑ 48 ↓ 119
2019-07-16 U Алита: Боевой ангел / Alita: Battle Angel (2019) BDRip-HEVC 1080p от HANNIBAL | Лицензия 8.32 GB ↑ 150 ↓ 95
2019-07-16 U Алита: Боевой ангел / Alita: Battle Angel (2019) BDRip 1080p от Ash61 | 3D-Video | halfOU | Лицензия 12.55 GB ↑ 193 ↓ 201

Отзывы
Зарегистрируйтесь чтобы добавить комментарий.
Обратная связь
Copyleft ©