↑↓Torrent.by
Поиск
Логин: Регистрация
Пароль: Восстановить пароль
Загрузка...

Гость на свадьбе / The Wedding Guest (2018) WEB-DLRip | iTunes

Скачать gost-na-svadbe-the-wedding-guest-2018-web-dlrip-itunes.torrent
U Магнитная ссылка Размер: 1.46 GB Раздают: 217 Качают: 88 Добавлен: 2019-07-10 17:19:02
Гость на свадьбе / The Wedding Guest (2018) WEB-DLRip | iTunes

Гость на свадьбе / The Wedding Guest

Страна: Великобритания
Производство: Riverstone Pictures, Revolution Films, Ingenious Media
Год выпуска: 2018
Жанр:  триллер
Продолжительность: 01:36:28

Режиссер: Майкл Уинтерботтом
В ролях: Дев Патель, Радхика Апте, Джим Сарбх, Ниш Натвани, Хэриш Ханна

Описание: Точно спланированная операция, призванная спасти девушку от нежелательной свадьбы, оборачивается гонкой на перегонки со временем, где каждый неверный шаг может стоит жизни...

Перевод: Профессиональный (многоголосый, закадровый) | iTunes
Субтитры: нет

Качество: WEB-DLRip
Формат: AVI
Видео кодек: XviD
Аудио кодек: АС3
Видео: 704x288 (2.40:1), 23.976 fps, XviD build 73 ~1 768 kbps avg
Аудио: 48.0 kHz, AC3 Dolby Digital, 3/2 (L,C,R,l,r) + LFE ch, ~384 kbps

Дата премьеры (мир): 8 сентября 2018

Релиз от: порошков


[+] Media Info
General
Формат                                   : AVI
Формат/Информация                        : Audio Video Interleave
Размер файла                             : 1,46 Гбайт
Продолжительность                        : 1 ч. 36 м.
Общий поток                              : 2161 Кбит/сек
Название фильма                          : Гость на свадьбе_2018_WEB-DLRip
Программа кодирования                    : VirtualDubMod 1.5.10.3 | (build 2550/release)
Авторское право                          : порошков

Видео
Идентификатор                            : 0
Формат                                   : MPEG-4 Visual
Профиль формата                          : Advanced Simple@L5
Настройки формата                        : BVOP1 / Custom Matrix
Параметр BVOP формата                    : 1
Параметр QPel формата                    : Нет
Параметр GMC формата                     : Без точки перехода
Параметр матрицы формата                 : Выборочная
Идентификатор кодека                     : XVID
Идентификатор кодека/Подсказка           : XviD
Продолжительность                        : 1 ч. 36 м.
Битрейт                                  : 1768 Кбит/сек
Ширина                                   : 704 пикселя
Высота                                   : 288 пикселей
Соотношение сторон                       : 2,40:1
Частота кадров                           : 23,976 (24000/1001) кадра/сек
Цветовое пространство                    : YUV
Субдискретизация насыщенности            : 4:2:0
Битовая глубина                          : 8 бит
Тип развёртки                            : Прогрессивная
Метод сжатия                             : С потерями
Бит/(Пиксели*Кадры)                      : 0.364
Размер потока                            : 1,19 Гбайт (82%)
Библиотека кодирования                   : XviD 73

Аудио
Идентификатор                            : 1
Формат                                   : AC-3
Формат/Информация                        : Audio Coding 3
Коммерческое название                    : Dolby Digital
Идентификатор кодека                     : 2000
Продолжительность                        : 1 ч. 36 м.
Вид битрейта                             : Постоянный
Битрейт                                  : 384 Кбит/сек
Каналы                                   : 6 каналов
ChannelLayout                            : L R C LFE Ls Rs
Частота                                  : 48,0 КГц
Частота кадров                           : 31,250 кадров/сек (1536 SPF)
Битовая глубина                          : 16 бит
Метод сжатия                             : С потерями
Размер потока                            : 265 Мбайт (18%)
Выравнивание                             : Разделение по промежуткам
Продолжительность промежутка             : 42  мс. (1,00 видеокадр)
Время предзагрузки промежутка            : 500  мс.



[+] Скрытый текст
Робот по имени Чаппи
Отель Мумбаи: Противостояние
Миллионер из трущоб
и т.д.
Место рождения:
Лондон, Великобритания
Гражданство:
Великобритания



Скриншоты:
[+] Всего файлов в раздаче - 1:
Гость на свадьбе_2018_WEB-DLRip.avi1.46 GB

Показать еще раздачи по запросу гость:
2019-07-10 U Гость на свадьбе / The Wedding Guest (2018) WEB-DL 1080p | iTunes 6.36 GB ↑ 61 ↓ 77
2018-09-06 U Невидимый гость / Contratiempo (2016) BDRip от MegaPeer | Локализованная версия | Лицензия 1К744.48 MB ↑ 42 ↓ 6
2018-09-05 U Невидимый гость / Contratiempo (2016) BDRip 1080p от OlLanDGroup | Локализованная версия | Лицензия 8.32 GB ↑ 86 ↓ 54
2018-09-05 U Невидимый гость / Contratiempo (2016) BDRip от MegaPeer | Локализованная версия | Лицензия 1.46 GB ↑ 126 ↓ 34
2018-06-27 U Невидимый гость / Contratiempo / The Invisible Guest (2016) BDRemux 1080p от ExKinoRay | GER Transfer | iTunes 19.18 GB ↑ 73 ↓ 14
2018-06-25 U Невидимый гость / Contratiempo (2016) BDRip от MegaPeer | iTunes 747.36 MB ↑ 37 ↓ 25
2018-06-25 U Невидимый гость / Contratiempo (2016) BDRip 1080p от ExKinoRay | D, P | iTunes 14.23 GB ↑ 64 ↓ 39

Отзывы
Зарегистрируйтесь чтобы добавить комментарий.
Обратная связь
Copyleft ©