↑↓Torrent.by
Поиск
Логин: Регистрация
Пароль: Восстановить пароль
Загрузка...

Иллюзия комфорта / Эмили / Emelie (2015) HDRip | iTunes

Скачать illyuziya-komforta-emili-emelie-2015-hdrip-itunes.torrent
U Магнитная ссылка Размер: 1.46 GB Раздают: 93 Качают: 34 Добавлен: 2019-07-10 17:19:42
Иллюзия комфорта / Эмили / Emelie (2015) HDRip | iTunes

Иллюзия комфорта / Эмили / Emelie

Страна: США
Производство: Priority Pictures, Sandbar Pictures, ULTRAMEDIA, Uncorked Productions
Год выпуска: 2015
Жанр:  ужасы, триллер
Продолжительность: 01:22:08

Режиссер: Майкл Телин / Michael Thelin
В ролях: Сара Болгер, Джошуа Раш, Карли Адамс, Томас Баир, Сьюзан Пурфар, Крис Битем, Элиша Али, Тайлер Азер, Карл Бэйли, Джейсон Джон Биби

Описание: После того как постоянная няня не смогла прийти, семья Томпсонов обращается к её подруге Анне, чтобы та посидела с детьми, пока родители празднуют годовщину. Поначалу Анна кажется детям настоящим чудом — девушка разрешает играть с тем, с чем им обычно играть запрещено. Но постепенно поведение няни становится всё более и более странным...

Перевод: Профессиональный (многоголосый, закадровый) | iTunes
Субтитры: нет

Качество: HDRip
Формат: AVI
Видео кодек: XviD
Аудио кодек: АС3
Видео: 720x304 (2.35:1), 23.976 fps, XviD build 73 ~2 144 kbps avg
Аудио: 48.0 kHz, AC3 Dolby Digital, 3/2 (L,C,R,l,r) + LFE ch, ~384 kbps

Дата премьеры (мир): 22 апреля 2015

Релиз от: порошков


[+] Media Info
General
Формат                                   : AVI
Формат/Информация                        : Audio Video Interleave
Размер файла                             : 1,46 Гбайт
Продолжительность                        : 1 ч. 22 м.
Общий поток                              : 2537 Кбит/сек
Название фильма                          : Эмили_2015_HDRip
Программа кодирования                    : VirtualDubMod 1.5.10.3 | (build 2550/release)
Авторское право                          : порошков

Видео
Идентификатор                            : 0
Формат                                   : MPEG-4 Visual
Профиль формата                          : Advanced Simple@L5
Настройки формата                        : BVOP1 / Custom Matrix
Параметр BVOP формата                    : 1
Параметр QPel формата                    : Нет
Параметр GMC формата                     : Без точки перехода
Параметр матрицы формата                 : Выборочная
Идентификатор кодека                     : XVID
Идентификатор кодека/Подсказка           : XviD
Продолжительность                        : 1 ч. 22 м.
Битрейт                                  : 2144 Кбит/сек
Ширина                                   : 720 пикселей
Высота                                   : 304 пикселя
Соотношение сторон                       : 2,35:1
Частота кадров                           : 23,976 (24000/1001) кадра/сек
Цветовое пространство                    : YUV
Субдискретизация насыщенности            : 4:2:0
Битовая глубина                          : 8 бит
Тип развёртки                            : Прогрессивная
Метод сжатия                             : С потерями
Бит/(Пиксели*Кадры)                      : 0.408
Размер потока                            : 1,23 Гбайт (84%)
Библиотека кодирования                   : XviD 73

Аудио
Идентификатор                            : 1
Формат                                   : AC-3
Формат/Информация                        : Audio Coding 3
Коммерческое название                    : Dolby Digital
Идентификатор кодека                     : 2000
Продолжительность                        : 1 ч. 22 м.
Вид битрейта                             : Постоянный
Битрейт                                  : 384 Кбит/сек
Каналы                                   : 6 каналов
ChannelLayout                            : L R C LFE Ls Rs
Частота                                  : 48,0 КГц
Частота кадров                           : 31,250 кадров/сек (1536 SPF)
Битовая глубина                          : 16 бит
Метод сжатия                             : С потерями
Размер потока                            : 226 Мбайт (15%)
Выравнивание                             : Разделение по промежуткам
Продолжительность промежутка             : 42  мс. (1,00 видеокадр)
Время предзагрузки промежутка            : 500  мс.



Скриншоты:
[+] Всего файлов в раздаче - 1:
Эмили_2015_HDRip.avi1.46 GB

Показать еще раздачи по запросу иллюзия:
2018-12-22 U Иллюзия / Хитрость / Обман / Deception [S01] (2018) WEB-DLRip | ТВ3 7.01 GB ↑ 119 ↓ 118
2017-02-22 U Иллюзия любви / Mal de pierres (2016) BDRip | iTunes 2.16 GB ↑ 303 ↓ 4
2017-02-22 U Иллюзия любви / Mal de pierres (2016) BDRip 1080p | iTunes 9.07 GB ↑ 484 ↓ 16
2017-02-21 U Иллюзия любви / Mal de pierres (2016) BDRip от MegaPeer | iTunes 1.41 GB ↑ 165 ↓ 80
2017-02-21 U Иллюзия любви / Mal de pierres (2016) BDRip 720p | iTunes 6.06 GB ↑ 110 ↓ 64
2017-02-21 U Иллюзия любви / Mal de pierres (2016) HDRip | iTunes 1.37 GB ↑ 114 ↓ 81
2016-08-20 U Иллюзия обмана 2 / Now You See Me 2 (2016) BDRip 720p | RUS Transfer | D 7.20 GB ↑ 6067 ↓ 1698

Отзывы
Зарегистрируйтесь чтобы добавить комментарий.
Обратная связь
Copyleft ©