↑↓Torrent.by
Поиск
Логин: Регистрация
Пароль: Восстановить пароль
Загрузка...

Алита: Боевой ангел / Alita: Battle Angel (2019) WEB-DL-HEVC 1080p | P

Скачать alita-boevoy-angel-battle-2019-web-dl-hevc-1080p-p.torrent
U Магнитная ссылка Размер: 4.18 GB Раздают: 84 Качают: 53 Добавлен: 2019-07-10 17:19:48
Алита: Боевой ангел / Alita: Battle Angel (2019) WEB-DL-HEVC 1080p | P

Название: Алита: Боевой ангел
Оригинальное название: Alita: Battle Angel
Год выхода: 2019
Жанр: фантастика, боевик, триллер, мелодрама, приключения

Режиссер: Роберт Родригес

В ролях: Роза Салазар, Кристоф Вальц, Дженнифер Коннелли, Махершала Али, Эд Скрейн, Джеки Эрл Хейли, Киан Джонсон, Хорхе Лендеборг мл., Лана Кондор, Идара Виктор

О фильме:
Действие фильма происходит через 300 лет после Великой войны в XXVI веке. Доктор Идо находит останки женщины-киборга. После починки киборг ничего не помнит, но обнаруживает, что в состоянии пользоваться боевыми приемами киборгов. Начинаются поиски утерянных воспоминаний.

Страна: США
Продолжительность: 02:02:10
Перевод:
 Профессиональный (многоголосый закадровый) [HDRezka Studio]
 Профессиональный (многоголосый закадровый) [CВ Студия]

Файл
Кодек: H.265
Качество: WEB-DL-HEVC 1080p
Видео: HEVC, 1920x800 (2.40:1), 23.976 fps, 3 935 kb/s
Аудио 1: AC-3, 48.0 kHz, 2 ch, 192 kb/s | RUS (MVO / HDRezka Studio)
Аудио 2: AC-3, 48.0 kHz, 2 ch, 192 kb/s | RUS (MVO / CВ Студия)
Аудио 3: AC-3, 48.0 kHz, 2 ch, 192 kb/s | UKR (DUB / Line)
Аудио 4: AC-3, 48.0 kHz, 6 ch, 384 kb/s | ENG (Оригинал)
Субтитры: Русские, английские

Семпл


[+] MI
General
Unique ID                                : 245313536535583753714210593978834724012 (0xB88DAB27E92DB432BF2C3EA2D4CFA4AC)
Complete name                            : Alita Battle Angel.(2019).1080p.WEB-DL.H.265.mkv
Format                                   : Matroska
Format version                           : Version 4
File size                                : 4.18 GiB
Duration                                 : 2 h 2 min
Overall bit rate                         : 4 897 kb/s
Encoded date                             : UTC 2019-07-10 07:33:26
Writing application                      : mkvmerge v8.3.0 ('Over the Horizon') 64bit
Writing library                          : libebml v1.3.1 + libmatroska v1.4.2

Video
ID                                       : 1
Format                                   : HEVC
Format/Info                              : High Efficiency Video Coding
Format profile                           : Main 10@L4.1@High
Codec ID                                 : V_MPEGH/ISO/HEVC
Duration                                 : 2 h 2 min
Bit rate                                 : 3 935 kb/s
Width                                    : 1 920 pixels
Height                                   : 800 pixels
Display aspect ratio                     : 2.40:1
Frame rate mode                          : Constant
Frame rate                               : 23.976 (24000/1001) FPS
Color space                              : YUV
Chroma subsampling                       : 4:2:0
Bit depth                                : 10 bits
Bits/(Pixel*Frame)                       : 0.107
Stream size                              : 3.36 GiB (80%)
Language                                 : English
Default                                  : Yes
Forced                                   : No
Color range                              : Limited
Color primaries                          : BT.709
Transfer characteristics                 : BT.709
Matrix coefficients                      : BT.709

Audio #1
ID                                       : 2
Format                                   : AC-3
Format/Info                              : Audio Coding 3
Commercial name                          : Dolby Digital
Codec ID                                 : A_AC3
Duration                                 : 2 h 2 min
Bit rate mode                            : Constant
Bit rate                                 : 192 kb/s
Channel(s)                               : 2 channels
Channel layout                           : L R
Sampling rate                            : 48.0 kHz
Frame rate                               : 31.250 FPS (1536 SPF)
Bit depth                                : 16 bits
Compression mode                         : Lossy
Stream size                              : 168 MiB (4%)
Title                                    : HDRezka Studio
Language                                 : Russian
Default                                  : Yes
Forced                                   : No

Audio #2
ID                                       : 3
Format                                   : AC-3
Format/Info                              : Audio Coding 3
Commercial name                          : Dolby Digital
Codec ID                                 : A_AC3
Duration                                 : 2 h 1 min
Bit rate mode                            : Constant
Bit rate                                 : 192 kb/s
Channel(s)                               : 2 channels
Channel layout                           : L R
Sampling rate                            : 48.0 kHz
Frame rate                               : 31.250 FPS (1536 SPF)
Bit depth                                : 16 bits
Compression mode                         : Lossy
Stream size                              : 167 MiB (4%)
Title                                    : СВ Студия
Language                                 : Russian
Default                                  : No
Forced                                   : No

Audio #3
ID                                       : 4
Format                                   : AC-3
Format/Info                              : Audio Coding 3
Commercial name                          : Dolby Digital
Codec ID                                 : A_AC3
Duration                                 : 2 h 2 min
Bit rate mode                            : Constant
Bit rate                                 : 192 kb/s
Channel(s)                               : 2 channels
Channel layout                           : L R
Sampling rate                            : 48.0 kHz
Frame rate                               : 31.250 FPS (1536 SPF)
Bit depth                                : 16 bits
Compression mode                         : Lossy
Stream size                              : 168 MiB (4%)
Title                                    : Line
Language                                 : Ukrainian
Default                                  : No
Forced                                   : No

Audio #4
ID                                       : 5
Format                                   : AC-3
Format/Info                              : Audio Coding 3
Commercial name                          : Dolby Digital
Codec ID                                 : A_AC3
Duration                                 : 2 h 1 min
Bit rate mode                            : Constant
Bit rate                                 : 384 kb/s
Channel(s)                               : 6 channels
Channel layout                           : L R C LFE Ls Rs
Sampling rate                            : 48.0 kHz
Frame rate                               : 31.250 FPS (1536 SPF)
Bit depth                                : 16 bits
Compression mode                         : Lossy
Stream size                              : 335 MiB (8%)
Language                                 : English
Default                                  : No
Forced                                   : No

Text #1
ID                                       : 6
Format                                   : UTF-8
Codec ID                                 : S_TEXT/UTF8
Codec ID/Info                            : UTF-8 Plain Text
Duration                                 : 1 h 56 min
Bit rate                                 : 65 b/s
Count of elements                        : 1319
Stream size                              : 55.6 KiB (0%)
Title                                    : Full (FOCS)
Language                                 : Russian
Default                                  : No
Forced                                   : No

Text #2
ID                                       : 7
Format                                   : UTF-8
Codec ID                                 : S_TEXT/UTF8
Codec ID/Info                            : UTF-8 Plain Text
Duration                                 : 1 h 55 min
Bit rate                                 : 41 b/s
Count of elements                        : 1347
Stream size                              : 34.9 KiB (0%)
Title                                    : Full
Language                                 : English
Default                                  : No
Forced                                   : No

Text #3
ID                                       : 8
Format                                   : UTF-8
Codec ID                                 : S_TEXT/UTF8
Codec ID/Info                            : UTF-8 Plain Text
Duration                                 : 1 h 55 min
Bit rate                                 : 46 b/s
Count of elements                        : 1588
Stream size                              : 39.4 KiB (0%)
Title                                    : SDH
Language                                 : English
Default                                  : No
Forced                                   : No

Menu
00:00:00.000                             : en:Chapter 01
00:03:29.626                             : en:Chapter 02
00:07:52.680                             : en:Chapter 03
00:10:08.982                             : en:Chapter 04
00:13:07.702                             : en:Chapter 05
00:15:07.738                             : en:Chapter 06
00:18:05.539                             : en:Chapter 07
00:22:59.707                             : en:Chapter 08
00:25:36.321                             : en:Chapter 09
00:31:41.893                             : en:Chapter 10
00:33:30.209                             : en:Chapter 11
00:36:33.809                             : en:Chapter 12
00:38:31.885                             : en:Chapter 13
00:42:06.473                             : en:Chapter 14
00:45:59.204                             : en:Chapter 15
00:48:32.439                             : en:Chapter 16
00:52:57.995                             : en:Chapter 17
00:55:15.339                             : en:Chapter 18
01:00:40.746                             : en:Chapter 19
01:02:57.548                             : en:Chapter 20
01:05:17.770                             : en:Chapter 21
01:10:51.477                             : en:Chapter 22
01:13:38.268                             : en:Chapter 23
01:16:36.194                             : en:Chapter 24
01:18:53.205                             : en:Chapter 25
01:22:49.274                             : en:Chapter 26
01:24:56.316                             : en:Chapter 27
01:28:26.192                             : en:Chapter 28
01:33:19.527                             : en:Chapter 29
01:36:09.738                             : en:Chapter 30
01:41:55.667                             : en:Chapter 31
01:45:24.417                             : en:Chapter 32
01:48:17.464                             : en:Chapter 33
01:51:44.628                             : en:Chapter 34
01:54:44.640                             : en:Chapter 35
01:56:52.476                             : en:Chapter 36



Скриншоты:
[+] Всего файлов в раздаче - 1:
Alita Battle Angel.(2019).1080p.WEB-DL.H.265.mkv4.18 GB

Показать еще раздачи по запросу алита:
Вчера U Алита: Боевой ангел / Alita: Battle Angel (2019) BDRip-AVC от HELLYWOOD | Локализованная версия | Лицензия 1.46 GB ↑ 57 ↓ 28
2019-07-16 U Алита: Боевой ангел / Alita: Battle Angel (2019) UHD BDRemux 2160p от ExKinoRay | 4K | HDR | D, P | Локализованная версия | Лицензия 41.88 GB ↑ 48 ↓ 119
2019-07-16 U Алита: Боевой ангел / Alita: Battle Angel (2019) BDRip-HEVC 1080p от HANNIBAL | Лицензия 8.32 GB ↑ 149 ↓ 95
2019-07-16 U Алита: Боевой ангел / Alita: Battle Angel (2019) BDRip 1080p от Ash61 | 3D-Video | halfOU | Лицензия 12.55 GB ↑ 193 ↓ 201
2019-07-16 U Алита: Боевой ангел / Alita: Battle Angel (2019) BDRip-AVC от ExKinoRay | Лицензия 745.68 MB ↑ 26 ↓ 5
2019-07-16 U Алита: Боевой ангел / Alita: Battle Angel (2019) BDRemux 1080p от селезень | 3D-Video | Лицензия 38.45 GB ↑ 38 ↓ 31
2019-07-16 U Алита: Боевой ангел / Alita: Battle Angel (2019) BDRip 1080p от селезень | 3D-Video | HSBS | D, P | Лицензия 14.53 GB ↑ 64 ↓ 39

Отзывы
blokked
-=DoMiNo=- Так и есть, жду iTunes ...

Revyshka
СВ-Студия - по лучше на слух.. ХДРезка - как-то не камильфо=))

viksam
10.07.19 Добавлена звуковая дорожка от HDRezka Studio
=================================================
darkwish - Выход в iTunes обещают 12 июля ...

komma02
Kottirweil
Когда там уже тунец будет? Обещали еще в конце июня вроде...

kosovich322
Cryptor В сети есть да-же HDR 2160p , скоро будет норм.перевод (iTunes) - тогда и у нас появится ...
Качество по сэмплу и картинке в данном релизе - лучше.
Но так как многоголоска - 8ка, за труды - спасибо !

ASSSSS
10 битная хевка! Здесь качество должно быть получше...

Зарегистрируйтесь чтобы добавить комментарий.
Обратная связь
Copyleft ©