↑↓Torrent.by
Поиск
Логин: Регистрация
Пароль: Восстановить пароль
Загрузка...

25-й час [01-12 из 12] (2016) WEB-DLRip от GeneralFilm

Скачать 25-y-chas-01-12-iz-2016-web-dlrip-ot-generalfilm.torrent
U Магнитная ссылка Размер: 6.53 GB Раздают: 70 Качают: 40 Добавлен: 2019-07-10 17:20:04
25-й час [01-12 из 12] (2016) WEB-DLRip от GeneralFilm

Оригинальное название: 25-й час
Год выпуска: 2016
Жанр:  Криминал, драма, фантастика
Выпущено: Россия, Украина, Кинокомпания "StarMedia"
Режиссер: Николай Михайлов (III)
В ролях: Антон Хабаров, Татьяна Арнтгольц, Жанна Эппле, Александр Кобзарь, Таисия Шипилова, Николай Иванов (II), Николай Боклан, Виктория Билан, Валерий Сковронский, Сергей Романюк, Фёдор Гуринец, Бесо Гатаев, Вероника Лукьяненко, Константин Самоуков, Пётр Сова, Евгений Капорин, Сергей Сафрончик, Фёдор Годына, Виктория Карпинская, Александр Яцко, Виктория Малекторович, Борис Хвошнянский, Давид Бабаев, Валерий Шептекита, Лариса Кадочникова, Евгений Лебедин, Станислав Боклан, Андрей Дебрин

О фильме: Анна - журналистка, которая обладает даром поворачивать время вспять. Она обладает способностью, которой, возможно, больше нет ни у кого на свете. Эта способность досталась ей, лучшей журналистке популярной в городе газеты "24 часа", во время одного из освещаемых ею происшествий. Анна спасла внука старого часовщика. В знак благодарности старик подарил ей необычные часы, которые, как оказалось, могли "отмотать" время назад на один час, тем самым дав девушке возможность исправить ситуацию. Они включаются каждый раз, когда Анна или близкие ей люди попадают в настоящую беду. Девушка использует свой дар, чтобы предотвращать человеческие трагедии, свидетелем которых так часто приходится становиться журналисту.

Качество: WEB-DLRip
Видео: XviD build 73, 720x400 (16:9), 25.000 fps, ~ 1460 Kbps (~ 0.204 bit/pixel)
Аудио: 48.0 kHz, AC3, 2/0 ch, 192 kbps
Продолжительность: 12 х ~ 00:47:00
Перевод: Не требуется [Русский]
Cубтитры: нет

Релиз:


[+] MediaInfo
General
Complete name               : D:Razdachi25-j.Chas.2016.WEB-DLRip.GeneralFilm25-j.Chas.e01.avi
Format                      : AVI
Format/Info                 : Audio Video Interleave
File size                   : 557 MiB
Duration                    : 46 min 38 s
Overall bit rate            : 1 670 kb/s
Writing application         : VirtualDubMod 1.5.10.3 | www.virtualdub-fr.org || (build 2550/release)
Writing library             : VirtualDubMod build 2550/release

Video
ID                          : 0
Format                      : MPEG-4 Visual
Format profile              : Advanced Simple@L5
Format settings             : BVOP1 / Custom Matrix
Format settings, BVOP       : 1
Format settings, QPel       : No
Format settings, GMC        : No warppoints
Format settings, Matrix     : Custom
Codec ID                    : XVID
Codec ID/Hint               : XviD
Duration                    : 46 min 38 s
Bit rate                    : 1 468 kb/s
Width                       : 720 pixels
Height                      : 400 pixels
Display aspect ratio        : 16:9
Frame rate                  : 25.000 FPS
Color space                 : YUV
Chroma subsampling          : 4:2:0
Bit depth                   : 8 bits
Scan type                   : Progressive
Compression mode            : Lossy
Bits/(Pixel*Frame)          : 0.204
Stream size                 : 490 MiB (88%)
Writing library             : XviD 73

Audio
ID                          : 1
Format                      : AC-3
Format/Info                 : Audio Coding 3
Commercial name             : Dolby Digital
Codec ID                    : 2000
Duration                    : 46 min 38 s
Bit rate mode               : Constant
Bit rate                    : 192 kb/s
Channel(s)                  : 2 channels
Channel layout              : L R
Sampling rate               : 48.0 kHz
Frame rate                  : 31.250 FPS (1536 SPF)
Bit depth                   : 16 bits
Compression mode            : Lossy
Stream size                 : 64.1 MiB (11%)
Alignment                   : Split accross interleaves
Interleave, duration        : 40  ms (1.00 video frame)
Interleave, preload duratio : 500  ms
Service kind                : Complete Main



Скриншоты:
[+] Всего файлов в раздаче - 12:
25-j.Chas.e01.avi556.99 MB
25-j.Chas.e02.avi557.21 MB
25-j.Chas.e03.avi557.31 MB
25-j.Chas.e04.avi557.03 MB
25-j.Chas.e05.avi557.24 MB
25-j.Chas.e06.avi557.13 MB
25-j.Chas.e07.avi557.40 MB
25-j.Chas.e08.avi557.22 MB
25-j.Chas.e09.avi557.17 MB
25-j.Chas.e10.avi557.43 MB
25-j.Chas.e11.avi557.12 MB
25-j.Chas.e12.avi557.34 MB

Показать еще раздачи по запросу dlrip:
Сегодня U Питомец Юрского периода / The Adventures of Jurassic Pet (2019) WEB-DLRip от Portablius | Локализованная версия | iTunes 1К745.20 MB ↑ 26 ↓ 4
Сегодня U От любви до ненависти [01-04 из 04] (2019) WEB-DLRip от Files-x 2.38 GB ↑ 27 ↓ 39
Вчера U Сутенёр / Pimped (2018) WEB-DLRip от toxics | HDRezka Studio 741.48 MB ↑ 83 ↓ 38
2019-07-20 U Дар (2018) WEB-DLRip-AVC от ExKinoRay | iTunes 1.52 GB ↑ 75 ↓ 31
2019-07-20 U Питомец Юрского периода / The Adventures of Jurassic Pet (2019) WEB-DLRip-AVC от ExKinoRay | Локализованная версия | iTunes 1К1.51 GB ↑ 43 ↓ 25
2019-07-20 U Алита: Боевой ангел / Alita: Battle Angel (2019) WEB-DLRip от Scarabey | Лицензия | Open Matte 1.45 GB ↑ 35 ↓ 13
2019-07-20 U Балканский рубеж (2019) WEB-DLRip 1080p от Талямбы | 60 fps | iTunes 13.02 GB ↑ 39 ↓ 35

Отзывы
Зарегистрируйтесь чтобы добавить комментарий.
Обратная связь
Copyleft ©