↑↓Torrent.by
Поиск
Логин: Регистрация
Пароль: Восстановить пароль
Загрузка...

Зов волка / Le chant du loup (2019) BDRip 1080p от OlLanDGroup | P

Скачать zov-volka-le-chant-du-loup-2019-bdrip-1080p-ot-ollandgroup-p.torrent
U Магнитная ссылка Размер: 11.01 GB Раздают: 58 Качают: 68 Добавлен: 2019-07-10 17:20:08
Зов волка / Le chant du loup (2019) BDRip 1080p от OlLanDGroup | P

Зов волка / Le chant du loup
«Когда нет места страху, нет права на ошибку и нет времени на раздумья...»

Год выпуска: 2019
Страна: Франция
Производство: Pathé, Les Productions du Trésor, Chi-Fou-Mi Productions, Jouror Productions
Жанр:  Боевик, военный

Режиссёр: Абель Ланзак
В ролях: Франсуа Сивиль, Омар Си, Матьё Кассовиц, Реда Катеб, Паула Бир, Алексис Михалик, Жан-Ив Бертело, Дамиен Боннар, Pierre Cevaer, Себастьен Либессар

Перевод: Профессиональный (многоголосый, закадровый) | [СВ Студия]
Субтитры: Английские (полные)
Реклама: Отсутствует

Описание: Сирийский берег. Тартус. Спецназ НАТО проводит спецоперацию. Его поддерживает подлодка, где молодой подводник обладает редким даром распознавать каждый звук, который он слышит. Напряжённость между Россией и НАТО возрастает. Доходит до потенциальной угрозы взаимных ядерных ударов, но молодой подводник пытается предотвратить неминуемое казалось столкновение. От его «Золотого уха» зависят судьбы людей, а ошибка ставит под угрозу жизнь всего экипажа подводной лодки. Желая вернуть доверие своих товарищей, он проводит собственное расследование военной провокации, в результате которой весь мир оказывается в шаге от ядерного апокалипсиса. Чтобы предотвратить мировую войну, элитной боевой команде подлодки необходимо совершить невозможное, ведь главный приказ отмене не подлежит.

Качество: BDRip 1080p | BDRemux | Le.Chant.du.Loup.2019.BDRemux.TeamHD-potroks
Продолжительность: 01:55:46

Формат: MKV
Видео кодек: MPEG-4 AVC
Аудио кодек: AC3
Видео: 1920x804 (2.40:1), 23,976 fps, x264 ~11.5 Mbps avg, 0.310 bit/pixel
Аудио #1: 48 kHz, AC3 Dolby Digital, 3/2 (L,C,R,l,r) + LFE ch, ~640.00 kbps avg | RUS (СВ Студия)
Аудио #2: 48 kHz, DTS, 3/2 (L,C,R,l,r) + LFE ch, ~1509.00 kbps avg | FRA

Дата премьеры (мир): 17 января 2019
Дата премьеры (РФ): 20 июня 2019, «MEGOGO Distribution»

Релиз: Rip by:


[+] x264

x264 [info]: frame I:1220  Avg QP:15.58  size:249153
x264 [info]: frame P:35796 Avg QP:17.65  size:109286
x264 [info]: frame B:129511 Avg QP:19.47  size: 44318
x264 [info]: consecutive B-frames:  2.5%  4.0%  5.5% 13.1% 16.4% 46.8%  7.3%  2.3%  1.2%  0.8%  0.3%
x264 [info]: mb I  I16..4: 19.0% 70.2% 10.7%
x264 [info]: mb P  I16..4:  0.7% 24.3%  1.4%  P16..4: 25.6% 35.1% 12.0%  0.0%  0.0%    skip: 0.8%
x264 [info]: mb B  I16..4:  0.0%  2.0%  0.1%  B16..8: 43.2% 24.5%  5.0%  direct: 7.9%  skip:17.2%  L0:46.3% L1:44.6% BI: 9.1%
x264 [info]: 8x8 transform intra:90.1% inter:58.4%
x264 [info]: direct mvs  spatial:96.8% temporal:3.2%
x264 [info]: coded y,uvDC,uvAC intra: 96.3% 85.7% 65.2% inter: 42.9% 35.7% 9.9%
x264 [info]: i16 v,h,dc,p:  5%  7% 32% 56%
x264 [info]: i8 v,h,dc,ddl,ddr,vr,hd,vl,hu:  8%  7% 13% 10% 13% 12% 12% 11% 13%
x264 [info]: i4 v,h,dc,ddl,ddr,vr,hd,vl,hu: 35%  7%  5%  7% 10% 12%  9%  7%  8%
x264 [info]: i8c dc,h,v,p: 45% 23% 17% 14%
x264 [info]: Weighted P-Frames: Y:3.0% UV:2.1%
x264 [info]: ref P L0: 43.8%  7.9% 25.0% 11.3% 10.6%  1.3%  0.0%
x264 [info]: ref B L0: 68.1% 22.0%  7.9%  2.0%
x264 [info]: ref B L1: 89.9% 10.1%
x264 [info]: kb/s:11467.04



[+] MediaInfo

Общее
Уникальный идентификатор                 : 152205557729457124620428649751108703157 (0x7281B960CD538F7AA0EC86730094D3B5)
Полное имя                               : F:OlLanDGroupLe.Chant.du.Loup.2019.BDRip(1080p).OlLanDGroup.mkv
Формат                                   : Matroska
Версия формата                           : Version 4 / Version 2
Размер файла                             : 11,0 Гбайт
Продолжительность                        : 1 ч. 55 м.
Общий поток                              : 13,6 Мбит/сек
Название фильма                          : Le.Chant.du.Loup.2019   #TorpedoUK#
Дата кодирования                         : UTC 2019-07-09 17:21:12
Программа кодирования                    : mkvmerge v29.0.0 ('Like It Or Not') 64-bit
Библиотека кодирования                   : libebml v1.3.6 + libmatroska v1.4.9

Видео
Идентификатор                            : 1
Формат                                   : AVC
Формат/Информация                        : Advanced Video Codec
Профиль формата                          : High@L4.1
Параметр CABAC формата                   : Да
Параметр ReFrames формата                : 5 кадров
Идентификатор кодека                     : V_MPEG4/ISO/AVC
Продолжительность                        : 1 ч. 55 м.
Битрейт                                  : 11,5 Мбит/сек
Ширина                                   : 1920 пикселей
Высота                                   : 804 пикселя
Соотношение сторон                       : 2,40:1
Режим частоты кадров                     : Постоянный
Частота кадров                           : 23,976 (24000/1001) кадра/сек
Цветовое пространство                    : YUV
Субдискретизация насыщенности            : 4:2:0
Битовая глубина                          : 8 бит
Тип развёртки                            : Прогрессивная
Бит/(Пиксели*Кадры)                      : 0.310
Размер потока                            : 9,27 Гбайт (84%)
Библиотека кодирования                   : x264 core 146 r2538 121396c
Настройки программы                      : cabac=1 / ref=5 / deblock=1:-3:-3 / analyse=0x3:0x113 / me=umh / subme=11 / psy=1 / psy_rd=0.95:0.07 / mixed_ref=1 / me_range=64 / chroma_me=1 / trellis=2 / 8x8dct=1 / cqm=0 / deadzone=21,11 / fast_pskip=1 / chroma_qp_offset=-3 / threads=6 / lookahead_threads=3 / sliced_threads=0 / nr=0 / decimate=1 / interlaced=0 / bluray_compat=0 / constrained_intra=0 / bframes=10 / b_pyramid=2 / b_adapt=2 / b_bias=0 / direct=3 / weightb=1 / open_gop=0 / weightp=2 / keyint=240 / keyint_min=23 / scenecut=40 / intra_refresh=0 / rc_lookahead=40 / rc=2pass / mbtree=0 / bitrate=11467 / ratetol=1.0 / qcomp=0.60 / qpmin=0 / qpmax=69 / qpstep=4 / cplxblur=20.0 / qblur=0.5 / vbv_maxrate=50000 / vbv_bufsize=62500 / nal_hrd=none / filler=0 / ip_ratio=1.40 / pb_ratio=1.30 / aq=1:1.00
Язык                                     : English
Default                                  : Да
Forced                                   : Нет

Аудио #1
Идентификатор                            : 2
Формат                                   : AC-3
Формат/Информация                        : Audio Coding 3
Расширение режима                        : CM (complete main)
Параметр Endianness формата              : Big
Идентификатор кодека                     : A_AC3
Продолжительность                        : 1 ч. 55 м.
Вид битрейта                             : Постоянный
Битрейт                                  : 640 Кбит/сек
Каналы                                   : 6 каналов
Расположение каналов                     : Front: L C R, Side: L R, LFE
Частота                                  : 48,0 КГц
Частота кадров                           : 31,250 кадров/сек (1536 spf)
Битовая глубина                          : 16 бит
Метод сжатия                             : С потерями
Размер потока                            : 530 Мбайт (5%)
Заголовок                                : MVO [CВ Студия]
Язык                                     : Russian
Default                                  : Да
Forced                                   : Нет

Аудио #2
Идентификатор                            : 3
Формат                                   : DTS
Формат/Информация                        : Digital Theater Systems
Режим                                    : 16
Параметр Endianness формата              : Big
Идентификатор кодека                     : A_DTS
Продолжительность                        : 1 ч. 55 м.
Вид битрейта                             : Постоянный
Битрейт                                  : 1509 Кбит/сек
Каналы                                   : 6 каналов
Расположение каналов                     : Front: L C R, Side: L R, LFE
Частота                                  : 48,0 КГц
Частота кадров                           : 93,750 кадра/сек (512 spf)
Битовая глубина                          : 24 бит
Метод сжатия                             : С потерями
Размер потока                            : 1,22 Гбайт (11%)
Заголовок                                : [Original]
Язык                                     : French
Default                                  : Нет
Forced                                   : Нет

Текст
Идентификатор                            : 4
Формат                                   : UTF-8
Идентификатор кодека                     : S_TEXT/UTF8
Идентификатор кодека/Информация          : UTF-8 Plain Text
Продолжительность                        : 1 ч. 54 м.
Битрейт                                  : 37 бит/сек
Count of elements                        : 1167
Размер потока                            : 31,3 Кбайт (0%)
Заголовок                                : Full
Язык                                     : English
Default                                  : Нет
Forced                                   : Нет

Меню
00:00:00.000                             : :Глава 01
00:12:02.138                             : :Глава 02
00:22:56.791                             : :Глава 03
00:32:05.298                             : :Глава 04
00:40:23.879                             : :Глава 05
00:51:37.594                             : :Глава 06
01:01:49.288                             : :Глава 07
01:12:54.661                             : :Глава 08
01:19:21.131                             : :Глава 09
01:28:48.948                             : :Глава 10
01:39:49.566                             : :Глава 11
01:49:54.421                             : :Глава 12



Скриншоты:
[+] Всего файлов в раздаче - 1:
Le.Chant.du.Loup.2019.BDRip(1080p).OlLanDGroup.mkv11.01 GB

Показать еще раздачи по запросу волка:
2019-07-08 U Зов волка / Le chant du loup (2019) BDRip 720p от HELLYWOOD | P 5.35 GB ↑ 50 ↓ 18
2019-07-02 U Зов волка / Le chant du loup (2019) BDRip-AVC от New-Team | P | СВ Студия 2.95 GB ↑ 29 ↓ 8
2019-07-01 U Зов волка / Le chant du loup (2019) BDRip-AVC от ExKinoRay | СВ Студия 2.32 GB ↑ 106 ↓ 48
2019-07-01 U Зов волка / Le chant du loup (2019) BDRemux 1080p | CВ Студия 31.78 GB ↑ 94 ↓ 39
2019-07-01 U Зов волка / Le chant du loup (2019) BDRip 720p | CВ Студия 6.50 GB ↑ 86 ↓ 65
2019-07-01 U Зов волка / Le chant du loup (2019) BDRip-AVC от New-Team | P | СВ Студия 1.46 GB ↑ 86 ↓ 31
2019-06-30 U Зов волка / Le chant du loup (2019) BDRip от MegaPeer | СВ Студия 2.18 GB ↑ 237 ↓ 160

Отзывы
Зарегистрируйтесь чтобы добавить комментарий.
Обратная связь
Copyleft ©