↑↓Torrent.by
Поиск
Логин: Регистрация
Пароль: Восстановить пароль
Загрузка...

Алита: Боевой ангел / Alita: Battle Angel (2019) UHD WEB-DL 2160p | 4K | HDR | P

Скачать alita-boevoy-angel-battle-2019-uhd-web-dl-2160p-4k-hdr-p.torrent
U Магнитная ссылка Размер: 21.84 GB Раздают: 63 Качают: 144 Добавлен: 2019-07-10 17:20:12
Алита: Боевой ангел / Alita: Battle Angel (2019) UHD WEB-DL 2160p | 4K | HDR | P

Название: Алита: Боевой ангел
Оригинальное название: Alita: Battle Angel
Год выхода: 2019
Жанр: фантастика, боевик, триллер, мелодрама, приключения

Режиссер: Роберт Родригес

В ролях: Роза Салазар, Кристоф Вальц, Дженнифер Коннелли, Махершала Али, Эд Скрейн, Джеки Эрл Хейли, Киан Джонсон, Хорхе Лендеборг мл., Лана Кондор, Идара Виктор

О фильме:
Действие фильма происходит через 300 лет после Великой войны в XXVI веке. Доктор Идо находит останки женщины-киборга. После починки киборг ничего не помнит, но обнаруживает, что в состоянии пользоваться боевыми приемами киборгов. Начинаются поиски утерянных воспоминаний.

Страна: США
Продолжительность: 02:01:58
Перевод:
 Профессиональный (многоголосый закадровый) [HDRezka Studio]
 Профессиональный (многоголосый закадровый) [CВ Студия]

Файл
Кодек: H.265
Качество: WEB-DL 2160p
Видео: HEVC, 3840x1608 (2.40:1), 23.976 fps, 24.5 Mb/s
Аудио 1: AC-3, 48.0 kHz, 2 ch, 192 kb/s | RUS (MVO / HDRezka Studio)
Аудио 2: AC-3, 48.0 kHz, 2 ch, 192 kb/s | RUS (MVO / CВ Студия)
Аудио 3: AC-3, 48.0 kHz, 2 ch, 192 kb/s | UKR (DUB / Line)
Аудио 4: E-AC-3, 48.0 kHz, 6 ch, 576 kb/s | ENG (Оригинал)
Субтитры: Русские, английские

Семпл


[+] MI
General
Unique ID                                : 251003910659558881528772072398731915042 (0xBCD59842D4A3592EB0CA5379942CAF22)
Complete name                            : Alita.Battle.Angel.2019.HDR.WEB-DL.HEVC.2160p.mkv
Format                                   : Matroska
Format version                           : Version 4
File size                                : 21.8 GiB
Duration                                 : 2 h 1 min
Overall bit rate                         : 25.6 Mb/s
Encoded date                             : UTC 2019-07-10 09:26:30
Writing application                      : mkvmerge v8.3.0 ('Over the Horizon') 64bit
Writing library                          : libebml v1.3.1 + libmatroska v1.4.2

Video
ID                                       : 1
Format                                   : HEVC
Format/Info                              : High Efficiency Video Coding
Commercial name                          : HDR10
Format profile                           : Main 10@L5@High
Codec ID                                 : V_MPEGH/ISO/HEVC
Duration                                 : 2 h 1 min
Bit rate                                 : 24.5 Mb/s
Width                                    : 3 840 pixels
Height                                   : 1 608 pixels
Display aspect ratio                     : 2.40:1
Frame rate mode                          : Constant
Frame rate                               : 23.976 (24000/1001) FPS
Color space                              : YUV
Chroma subsampling                       : 4:2:0 (Type 2)
Bit depth                                : 10 bits
Bits/(Pixel*Frame)                       : 0.165
Stream size                              : 20.9 GiB (95%)
Language                                 : English
Default                                  : Yes
Forced                                   : No
Color range                              : Limited
Color primaries                          : BT.2020
Transfer characteristics                 : PQ
Matrix coefficients                      : BT.2020 non-constant
Mastering display color primaries        : Display P3
Mastering display luminance              : min: 0.0050 cd/m2, max: 1000 cd/m2

Audio #1
ID                                       : 2
Format                                   : AC-3
Format/Info                              : Audio Coding 3
Commercial name                          : Dolby Digital
Codec ID                                 : A_AC3
Duration                                 : 2 h 1 min
Bit rate mode                            : Constant
Bit rate                                 : 192 kb/s
Channel(s)                               : 2 channels
Channel layout                           : L R
Sampling rate                            : 48.0 kHz
Frame rate                               : 31.250 FPS (1536 SPF)
Bit depth                                : 16 bits
Compression mode                         : Lossy
Stream size                              : 167 MiB (1%)
Title                                    : HDRezka Studio
Language                                 : Russian
Default                                  : Yes
Forced                                   : No

Audio #2
ID                                       : 3
Format                                   : AC-3
Format/Info                              : Audio Coding 3
Commercial name                          : Dolby Digital
Codec ID                                 : A_AC3
Duration                                 : 2 h 1 min
Bit rate mode                            : Constant
Bit rate                                 : 192 kb/s
Channel(s)                               : 2 channels
Channel layout                           : L R
Sampling rate                            : 48.0 kHz
Frame rate                               : 31.250 FPS (1536 SPF)
Bit depth                                : 16 bits
Compression mode                         : Lossy
Stream size                              : 167 MiB (1%)
Title                                    : СВ Студия
Language                                 : Russian
Default                                  : No
Forced                                   : No

Audio #3
ID                                       : 4
Format                                   : AC-3
Format/Info                              : Audio Coding 3
Commercial name                          : Dolby Digital
Codec ID                                 : A_AC3
Duration                                 : 2 h 1 min
Bit rate mode                            : Constant
Bit rate                                 : 192 kb/s
Channel(s)                               : 2 channels
Channel layout                           : L R
Sampling rate                            : 48.0 kHz
Frame rate                               : 31.250 FPS (1536 SPF)
Bit depth                                : 16 bits
Compression mode                         : Lossy
Stream size                              : 167 MiB (1%)
Title                                    : Line
Language                                 : Ukrainian
Default                                  : No
Forced                                   : No

Audio #4
ID                                       : 5
Format                                   : E-AC-3 JOC
Format/Info                              : Enhanced AC-3 with Joint Object Coding
Commercial name                          : Dolby Digital Plus with Dolby Atmos
Codec ID                                 : A_EAC3
Duration                                 : 2 h 1 min
Bit rate mode                            : Constant
Bit rate                                 : 576 kb/s
Channel(s)                               : 6 channels
Channel layout                           : L R C LFE Ls Rs
Sampling rate                            : 48.0 kHz
Frame rate                               : 31.250 FPS (1536 SPF)
Compression mode                         : Lossy
Delay relative to video                  : 83 ms
Stream size                              : 502 MiB (2%)
Language                                 : English
Service kind                             : Complete Main
Default                                  : No
Forced                                   : No
Complexity index                         : 16
Number of dynamic objects                : 15
Bed channel count                        : 1 channel
Bed channel configuration                : LFE

Text #1
ID                                       : 6
Format                                   : UTF-8
Codec ID                                 : S_TEXT/UTF8
Codec ID/Info                            : UTF-8 Plain Text
Duration                                 : 1 h 56 min
Bit rate                                 : 64 b/s
Count of elements                        : 1319
Stream size                              : 55.2 KiB (0%)
Title                                    : Focs
Language                                 : Russian
Default                                  : No
Forced                                   : No

Text #2
ID                                       : 7
Format                                   : UTF-8
Codec ID                                 : S_TEXT/UTF8
Codec ID/Info                            : UTF-8 Plain Text
Duration                                 : 1 h 55 min
Bit rate                                 : 40 b/s
Count of elements                        : 1347
Stream size                              : 34.0 KiB (0%)
Title                                    : full
Language                                 : English
Default                                  : No
Forced                                   : No

Text #3
ID                                       : 8
Format                                   : UTF-8
Codec ID                                 : S_TEXT/UTF8
Codec ID/Info                            : UTF-8 Plain Text
Duration                                 : 1 h 55 min
Bit rate                                 : 45 b/s
Count of elements                        : 1588
Stream size                              : 38.5 KiB (0%)
Title                                    : SDH
Language                                 : English
Default                                  : No
Forced                                   : No

Menu
00:00:01.000                             : en:Chapter 01
00:03:29.000                             : en:Chapter 02
00:07:52.000                             : en:Chapter 03
00:10:08.000                             : en:Chapter 04
00:13:07.000                             : en:Chapter 05
00:15:07.000                             : en:Chapter 06
00:18:05.000                             : en:Chapter 07
00:22:59.000                             : en:Chapter 08
00:25:36.000                             : en:Chapter 09
00:31:41.000                             : en:Chapter 10
00:33:30.000                             : en:Chapter 11
00:36:33.000                             : en:Chapter 12
00:38:31.000                             : en:Chapter 13
00:42:06.000                             : en:Chapter 14
00:45:59.000                             : en:Chapter 15
00:48:32.000                             : en:Chapter 16
00:52:58.000                             : en:Chapter 17
00:55:15.000                             : en:Chapter 18
01:00:40.000                             : en:Chapter 19
01:02:57.000                             : en:Chapter 20
01:05:17.000                             : en:Chapter 21
01:10:51.000                             : en:Chapter 22
01:13:38.000                             : en:Chapter 23
01:16:36.000                             : en:Chapter 24
01:18:53.000                             : en:Chapter 25
01:22:49.000                             : en:Chapter 26
01:24:56.000                             : en:Chapter 27
01:28:26.000                             : en:Chapter 28
01:33:19.000                             : en:Chapter 29
01:36:09.000                             : en:Chapter 30
01:41:55.000                             : en:Chapter 31
01:45:24.000                             : en:Chapter 32
01:48:17.000                             : en:Chapter 33
01:51:44.000                             : en:Chapter 34
01:54:44.000                             : en:Chapter 35
01:56:52.000                             : en:Chapter 36



Скриншоты:
[+] Всего файлов в раздаче - 1:
Alita.Battle.Angel.2019.HDR.WEB-DL.HEVC.2160p.mkv21.84 GB

Показать еще раздачи по запросу алита:
Сегодня U Алита: Боевой ангел / Alita: Battle Angel (2019) BDRip 1080p от qqss44 & MegaPeer | Локализованная версия | Лицензия 7.76 GB ↑ 128 ↓ 148
Сегодня U Алита: Боевой ангел / Alita: Battle Angel (2019) HDRip от Scarabey | Лицензия 1.45 GB ↑ 98 ↓ 59
Сегодня U Алита: Боевой ангел / Alita: Battle Angel (2019) WEB-DL 1080p | Open Matte | D, P | Лицензия 9.56 GB ↑ 194 ↓ 94
Сегодня U Алита: Боевой ангел / Alita: Battle Angel (2019) BDRip 720p от HELLYWOOD | Локализованная версия | Лицензия 5.76 GB ↑ 241 ↓ 154
Сегодня U Алита: Боевой ангел / Alita: Battle Angel (2019) BDRip-AVC от ExKinoRay | Локализованная версия | Лицензия 2.86 GB ↑ 17 ↓ 13
Сегодня U Алита: Боевой ангел / Alita: Battle Angel (2019) Blu-Ray EUR 1080p | Лицензия 44.27 GB ↑ 40 ↓ 20
Вчера U Алита: Боевой ангел / Alita: Battle Angel (2019) WEB-DLRip-AVC | Open Matte | D | Лицензия 4.05 GB ↑ 120 ↓ 33

Отзывы
Зарегистрируйтесь чтобы добавить комментарий.
Обратная связь
Copyleft ©