↑↓Torrent.by
Поиск
Логин: Регистрация
Пароль: Восстановить пароль
Загрузка...

Крылья империи [01-02 из 12] (2017) HDTVRip от GeneralFilm

Скачать krylya-imperii-01-02-iz-12-2017-hdtvrip-ot-generalfilm.torrent
U Магнитная ссылка Размер: 1.38 GB Раздают: 25 Качают: 11 Добавлен: 2019-07-11 07:20:47
Крылья  империи [01-02 из 12] (2017) HDTVRip от GeneralFilm

Оригинальное название: Крылья  империи
Год выпуска: 2017
Жанр:  Драма, исторический
Выпущено: Россия, Триикс Медиа, по заказу АО «Первый канал»
Режиссер: Игорь Копылов
В ролях: Милош Бикович, Ксения Лукьянчикова, Юрий Колокольников, Григорий Некрасов, Александр Бухаров, Александр Лыков, Даниил Кокин, Вячеслав Чепурченко, Михаил Елисеев, Екатерина Проскурина, Евгений Антропов, Иван Колесников, Роман Полянский, Игорь Головин, Игорь Иванов, Наталья Данилова, Николай Козак, Юрий Уткин, Юрий Ицков, Любомирас Лауцявичюс, Анатолий Хропов, Виталий Коваленко, Евгений Миллер, Илья Шидловский, Дарья Румянцева, Юлия Марченко, Максим Дахненко, Эмилия Спивак, Дмитрий Сутырин, Андрей Смелов, Томас Эслон

О фильме: Действие картины охватывает период времени с 1913 до 1921 года, отражая драматические события российской истории, ураганом пронёсшиеся через судьбы людей и страны, оставив после себя для одних руины прошлого, для других - фундамент для новой жизни. История начинается в 1913 году празднованием 300-летия дома Романовых и заканчивается событиями 1921 года, когда была поставлена кровавая точка в окончании гражданской войны, а именно подавлением Кронштадтского мятежа.

Качество: HDTVRip
Видео: XviD, ~ 1600 Кбит/с, 720х304, 25 кадр/с
Аудио: Русский (AC3, 2 ch, 192 Кбит/с)
Продолжительность: 2 х ~ 00:55:00
Перевод: Не требуется
Субтитры: нет

Релиз:


[+] MediaInfo

Общее
Полное имя                               : D:Krylja imperii.HDTVRip.GeneralFilm1.Krylja imperii.HDTVRip.GeneralFilm.avi
Формат                                   : AVI
Формат/Информация                        : Audio Video Interleave
Размер файла                             : 715 Мбайт
Продолжительность                        : 56 м. 13 с.
Общий поток                              : 1778 Кбит/сек

Видео
Идентификатор                            : 0
Формат                                   : MPEG-4 Visual
Профиль формата                          : Advanced Simple@L5
Параметр BVOP формата                    : 1
Параметр QPel формата                    : Нет
Параметр GMC формата                     : Без точки перехода
Параметр матрицы формата                 : Выборочная
Идентификатор кодека                     : XVID
Идентификатор кодека/Подсказка           : XviD
Продолжительность                        : 56 м. 13 с.
Битрейт                                  : 1574 Кбит/сек
Ширина                                   : 720 пикселей
Высота                                   : 304 пикселя
Соотношение сторон                       : 2,35:1
Частота кадров                           : 25,000 кадров/сек
Цветовое пространство                    : YUV
Субдискретизация насыщенности            : 4:2:0
Битовая глубина                          : 8 бит
Тип развёртки                            : Прогрессивная
Метод сжатия                             : С потерями
Бит/(Пиксели*Кадры)                      : 0.288
Размер потока                            : 633 Мбайт (89%)
Библиотека кодирования                   : XviD 1.2.1 (UTC 2008-12-04)

Аудио
Идентификатор                            : 1
Формат                                   : AC-3
Формат/Информация                        : Audio Coding 3
Расширение режима                        : CM (complete main)
Параметр Endianness формата              : Big
Идентификатор кодека                     : 2000
Продолжительность                        : 56 м. 13 с.
Вид битрейта                             : Постоянный
Битрейт                                  : 192 Кбит/сек
Каналы                                   : 2 канала
Расположение каналов                     : Front: L R
Частота                                  : 48,0 КГц
Частота кадров                           : 31,250 кадров/сек (1536 spf)
Битовая глубина                          : 16 бит
Метод сжатия                             : С потерями
Размер потока                            : 77,2 Мбайт (11%)
Выравнивание                             : Соединение по промежуткам
Продолжительность промежутка             : 32  мс. (0,80 видеокадр)

Общее
Полное имя                               : D:Krylja imperii.HDTVRip.GeneralFilm2.Krylja imperii.HDTVRip.GeneralFilm.avi
Формат                                   : AVI
Формат/Информация                        : Audio Video Interleave
Размер файла                             : 700 Мбайт
Продолжительность                        : 54 м. 36 с.
Общий поток                              : 1793 Кбит/сек
Программа кодирования                    : VirtualDubMod 1.5.10.3 | www.virtualdub-fr.org || (build 2550/release)
Библиотека кодирования                   : VirtualDubMod build 2550/release

Видео
Идентификатор                            : 0
Формат                                   : MPEG-4 Visual
Профиль формата                          : Advanced Simple@L5
Параметр BVOP формата                    : 1
Параметр QPel формата                    : Нет
Параметр GMC формата                     : Без точки перехода
Параметр матрицы формата                 : Выборочная
Идентификатор кодека                     : XVID
Идентификатор кодека/Подсказка           : XviD
Продолжительность                        : 54 м. 36 с.
Битрейт                                  : 1591 Кбит/сек
Ширина                                   : 720 пикселей
Высота                                   : 304 пикселя
Соотношение сторон                       : 2,35:1
Частота кадров                           : 25,000 кадров/сек
Цветовое пространство                    : YUV
Субдискретизация насыщенности            : 4:2:0
Битовая глубина                          : 8 бит
Тип развёртки                            : Прогрессивная
Метод сжатия                             : С потерями
Бит/(Пиксели*Кадры)                      : 0.291
Размер потока                            : 622 Мбайт (89%)
Библиотека кодирования                   : XviD 1.2.1 (UTC 2008-12-04)

Аудио
Идентификатор                            : 1
Формат                                   : AC-3
Формат/Информация                        : Audio Coding 3
Расширение режима                        : CM (complete main)
Параметр Endianness формата              : Big
Идентификатор кодека                     : 2000
Продолжительность                        : 54 м. 36 с.
Вид битрейта                             : Постоянный
Битрейт                                  : 192 Кбит/сек
Каналы                                   : 2 канала
Расположение каналов                     : Front: L R
Частота                                  : 48,0 КГц
Частота кадров                           : 31,250 кадров/сек (1536 spf)
Битовая глубина                          : 16 бит
Метод сжатия                             : С потерями
Размер потока                            : 75,0 Мбайт (11%)
Выравнивание                             : Разделение по промежуткам
Продолжительность промежутка             : 40  мс. (1,00 видеокадр)
Время предзагрузки промежутка            : 500  мс.




Скриншоты:
[+] Всего файлов в раздаче - 2:
01.Krylja imperii.HDTVRip.GeneralFilm.avi714.86 MB
02.Krylja imperii.HDTVRip.GeneralFilm.avi700.45 MB

Показать еще раздачи по запросу крылья:
Вчера U Крылья империи [01х01-12 из 12] (2017) SATRip-AVC 7.45 GB ↑ 2 ↓ 6
Вчера U Крылья империи [01-10 из 12] (2017) HDTVRip от GeneralFilm 6.52 GB ↑ 49 ↓ 63
Вчера U Крылья империи [01-10 из 12] (2017) SATRip 6.76 GB ↑ 59 ↓ 102
2019-07-17 U Крылья империи [01-08 из 12] (2017) HDTV 1080i от GeneralFilm 17.76 GB ↑ 44 ↓ 64
2019-07-17 U Крылья империи [01-08 из 12] (2017) HDTVRip 720p от GeneralFilm 10.84 GB ↑ 36 ↓ 74
2019-07-17 U Крылья империи [01-08 из 12] (2017) HDTVRip от GeneralFilm 5.23 GB ↑ 60 ↓ 67
2019-07-17 U Крылья империи [01-08 из 12] (2017) SATRip 5.43 GB ↑ 109 ↓ 114

Отзывы
Зарегистрируйтесь чтобы добавить комментарий.
Обратная связь
Copyleft ©