↑↓Torrent.by
Поиск
Логин: Регистрация
Пароль: Восстановить пароль
Загрузка...

Рокетмен / Rocketman (2019) WEBRip | HDRezka Studio

Скачать roketmen-rocketman-2019-webrip-hdrezka-studio.torrent
U Магнитная ссылка Размер: 1.46 GB Раздают: 598 Качают: 226 Добавлен: 2019-07-11 22:02:55
Рокетмен / Rocketman (2019) WEBRip | HDRezka Studio

Рокетмен / Rocketman

Страна: Великобритания  США  Канада
Производство: Paramount Pictures, New Republic Pictures, Marv Studios, Pixoloid Studios
Год выпуска: 2019
Жанр:  мюзикл, драма, биография, музыка
Продолжительность: 02:00:19

Режиссер: Декстер Флетчер
В ролях: Тэрон Эджертон, Джейми Белл, Ричард Мэдден, Брайс Даллас Ховард, Джемма Джонс, Стивен Макинтош, Том Беннетт, Мэттью Иллесли

Описание: История превращения застенчивого парня Реджинальда Дуайта, талантливейшего пианиста из маленького городка, в суперзвезду и культовую фигуру мировой поп-музыки Элтона Джона...

Перевод: Профессиональный (многоголосый, закадровый) | HDRezka Studio
Субтитры: корейские (hardsub)

Качество: WEBRip
Формат: AVI
Видео кодек: XviD
Аудио кодек: АС3
Видео: 720x304 (2.35:1), 23.976 fps, XviD build 73 ~1 538 kbps avg
Аудио: 48.0 kHz, AC3 Dolby Digital, 2/0 (L,R) ch, ~192 kbps

Дата премьеры (мир): 16 мая 2019
Дата премьеры (РФ): 6 июня 2019, «Централ Партнершип»

Релиз от: порошков


[+] Media Info
General
Формат                                   : AVI
Формат/Информация                        : Audio Video Interleave
Размер файла                             : 1,46 Гбайт
Продолжительность                        : 2 ч. 0 м.
Общий поток                              : 1739 Кбит/сек
Название фильма                          : Рокетмен_2019_WEBRip
Программа кодирования                    : VirtualDubMod 1.5.10.3 | (build 2550/release)
Авторское право                          : порошков

Видео
Идентификатор                            : 0
Формат                                   : MPEG-4 Visual
Профиль формата                          : Advanced Simple@L5
Настройки формата                        : BVOP1 / Custom Matrix
Параметр BVOP формата                    : 1
Параметр QPel формата                    : Нет
Параметр GMC формата                     : Без точки перехода
Параметр матрицы формата                 : Выборочная
Идентификатор кодека                     : XVID
Идентификатор кодека/Подсказка           : XviD
Продолжительность                        : 2 ч. 0 м.
Битрейт                                  : 1538 Кбит/сек
Ширина                                   : 720 пикселей
Высота                                   : 304 пикселя
Соотношение сторон                       : 2,35:1
Частота кадров                           : 23,976 (24000/1001) кадра/сек
Цветовое пространство                    : YUV
Субдискретизация насыщенности            : 4:2:0
Битовая глубина                          : 8 бит
Тип развёртки                            : Прогрессивная
Метод сжатия                             : С потерями
Бит/(Пиксели*Кадры)                      : 0.293
Размер потока                            : 1,29 Гбайт (88%)
Библиотека кодирования                   : XviD 73

Аудио
Идентификатор                            : 1
Формат                                   : AC-3
Формат/Информация                        : Audio Coding 3
Коммерческое название                    : Dolby Digital
Идентификатор кодека                     : 2000
Продолжительность                        : 2 ч. 0 м.
Вид битрейта                             : Постоянный
Битрейт                                  : 192 Кбит/сек
Каналы                                   : 2 канала
ChannelLayout                            : L R
Частота                                  : 48,0 КГц
Частота кадров                           : 31,250 кадров/сек (1536 SPF)
Битовая глубина                          : 16 бит
Метод сжатия                             : С потерями
Размер потока                            : 165 Мбайт (11%)
Выравнивание                             : Разделение по промежуткам
Продолжительность промежутка             : 42  мс. (1,00 видеокадр)
Время предзагрузки промежутка            : 500  мс.



Скриншоты:
[+] Всего файлов в раздаче - 1:
Рокетмен_2019_WEBRip.avi1.46 GB

Похожие раздачи по запросу - рокетмен:
2019-08-20 U Рокетмен / Rocketman (2019) BDRip от MegaPeer | Лицензия 2.18 GB ↑ 55 ↓ 6
2019-08-20 U Рокетмен / Rocketman (2019) BDRip 720p от ExKinoRay | Лицензия 4.32 GB ↑ 140 ↓ 17
2019-08-07 U Рокетмен / Rocketman (2019) WEB-DL 720p | HDRezka Studio 3.34 GB ↑ 155 ↓ 39
2019-07-11 U Рокетмен / Rocketman (2019) WEBRip 1080p | HDRezka Studio 3К11.66 GB ↑ 256 ↓ 220

Отзывы
Зарегистрируйтесь чтобы добавить комментарий.
Обратная связь
Copyleft ©