↑↓Torrent.by
Поиск
Логин: Регистрация
Пароль: Восстановить пароль
Загрузка...

Обитель страха / The Wind (2018) WEB-DL 1080p от селезень | D, P | iTunes

Скачать obitel-straha-the-wind-2018-web-dl-1080p-ot-selezen-d-p-itunes.torrent
U Магнитная ссылка Размер: 3.97 GB Раздают: 69 Качают: 64 Добавлен: 2019-07-11 22:03:49
Обитель страха / The Wind (2018) WEB-DL 1080p от селезень | D, P | iTunes

Название: Обитель страха
Оригинальное название: The Wind
Год выхода: 2018
Жанр: Ужасы, вестерн
Режиссер: Эмма Тамми
В ролях: Майлз Андерсон, Кейтлин Джерард, Джулия Голден Теллес, Дилан МакТи, Мартин Си Паттерсон, Эшли Цукерман

О фильме: Дикий Запад, конец XIX века. Где-то в бескрайних прериях живёт молодая пара. Муж часто отлучается на заработки в город и оставляет Лиззи одну, поэтому она очень обрадовалась, когда рядом поселилась ещё одна семейная пара. Теперь женщине есть с кем поговорить и провести время. Но забеременев, новая подруга начинает странно себя вести и утверждать, что где-то поблизости бродит нечто потустороннее.

Страна: США
Студия: Divide / Conquer, Mind Hive Films, Soapbox Films
Продолжительность: 01:27:57
Перевод(ы):
#1: Дублированный | iTunes
#2: Профессиональный многоголосый | HDRezka Studio

Качество: WEB-DL 1080p
Видео: MPEG-4 AVC, 1920x800, 5241 Kbit/s, 23.976 fps
Звук:
Аудио #01: 48 kHz, AC3, 5.1, 384 Kbps | iTunes | RUS |
Аудио #02: 48 kHz, AC3, 2.0, 192 Kbps | HDRezka Studio | RUS |
Аудио #03: 48 kHz, E-AC3, 5.1, 640 Kbps | Оригинал |  ENG |
Субтитры: Русские (Full), английские

Релиз:


[+] MI
General
Unique ID                   : 104201532483780533817776349116453950190 (0x4E647C33D961CB1363D5E0D1793112EE)
Complete name               : D:Video111The.Wind.2018.AMZN.WEB-DL.1080p.seleZen.mkv
Format                      : Matroska
Format version              : Version 4
File size                   : 3.97 GiB
Duration                    : 1 h 27 min
Overall bit rate            : 6 459 kb/s
Movie name                  : The Wind 2018 from селезень
Encoded date                : UTC 2019-07-11 02:54:38
Writing application         : mkvmerge v35.0.0 ('All The Love In The World') 64-bit
Writing library             : libebml v1.3.9 + libmatroska v1.5.2

Video
ID                          : 1
Format                      : AVC
Format/Info                 : Advanced Video Codec
Format profile              : High@L4
Format settings             : CABAC / 4 Ref Frames
Format settings, CABAC      : Yes
Format settings, Reference  : 4 frames
Codec ID                    : V_MPEG4/ISO/AVC
Duration                    : 1 h 27 min
Bit rate mode               : Constant
Bit rate                    : 5 241 kb/s
Nominal bit rate            : 10 000 kb/s
Width                       : 1 920 pixels
Height                      : 800 pixels
Display aspect ratio        : 2.40:1
Frame rate mode             : Constant
Frame rate                  : 24.000 FPS
Color space                 : YUV
Chroma subsampling          : 4:2:0
Bit depth                   : 8 bits
Scan type                   : Progressive
Bits/(Pixel*Frame)          : 0.142
Stream size                 : 3.22 GiB (81%)
Language                    : English
Default                     : Yes
Forced                      : No
Color range                 : Limited
Color primaries             : BT.709
Transfer characteristics    : BT.709
Matrix coefficients         : BT.709

Audio #1
ID                          : 2
Format                      : AC-3
Format/Info                 : Audio Coding 3
Commercial name             : Dolby Digital
Codec ID                    : A_AC3
Duration                    : 1 h 27 min
Bit rate mode               : Constant
Bit rate                    : 384 kb/s
Channel(s)                  : 6 channels
Channel layout              : L R C LFE Ls Rs
Sampling rate               : 48.0 kHz
Frame rate                  : 31.250 FPS (1536 SPF)
Bit depth                   : 16 bits
Compression mode            : Lossy
Stream size                 : 242 MiB (6%)
Title                       : iTunes
Language                    : Russian
Service kind                : Complete Main
Default                     : Yes
Forced                      : Yes

Audio #2
ID                          : 3
Format                      : AC-3
Format/Info                 : Audio Coding 3
Commercial name             : Dolby Digital
Codec ID                    : A_AC3
Duration                    : 1 h 27 min
Bit rate mode               : Constant
Bit rate                    : 192 kb/s
Channel(s)                  : 2 channels
Channel layout              : L R
Sampling rate               : 48.0 kHz
Frame rate                  : 31.250 FPS (1536 SPF)
Bit depth                   : 16 bits
Compression mode            : Lossy
Stream size                 : 121 MiB (3%)
Title                       : MVO [HDRezka Studio]
Language                    : Russian
Service kind                : Complete Main
Default                     : No
Forced                      : No

Audio #3
ID                          : 4
Format                      : E-AC-3
Format/Info                 : Enhanced AC-3
Commercial name             : Dolby Digital Plus
Codec ID                    : A_EAC3
Duration                    : 1 h 27 min
Bit rate mode               : Constant
Bit rate                    : 640 kb/s
Channel(s)                  : 6 channels
Channel layout              : L R C LFE Ls Rs
Sampling rate               : 48.0 kHz
Frame rate                  : 31.250 FPS (1536 SPF)
Compression mode            : Lossy
Stream size                 : 403 MiB (10%)
Title                       : Original
Language                    : English
Service kind                : Complete Main
Default                     : No
Forced                      : No

Text #1
ID                          : 5
Format                      : UTF-8
Codec ID                    : S_TEXT/UTF8
Codec ID/Info               : UTF-8 Plain Text
Duration                    : 1 h 19 min
Bit rate                    : 31 b/s
Count of elements           : 411
Stream size                 : 18.2 KiB (0%)
Title                       : Full
Language                    : Russian
Default                     : No
Forced                      : No

Text #2
ID                          : 6
Format                      : UTF-8
Codec ID                    : S_TEXT/UTF8
Codec ID/Info               : UTF-8 Plain Text
Duration                    : 1 h 16 min
Bit rate                    : 19 b/s
Count of elements           : 444
Stream size                 : 10.8 KiB (0%)
Title                       : Full
Language                    : English
Default                     : No
Forced                      : No

Text #3
ID                          : 7
Format                      : UTF-8
Codec ID                    : S_TEXT/UTF8
Codec ID/Info               : UTF-8 Plain Text
Duration                    : 1 h 27 min
Bit rate                    : 22 b/s
Count of elements           : 669
Stream size                 : 14.1 KiB (0%)
Title                       : SDH
Language                    : English
Default                     : No
Forced                      : No

Menu
00:00:00.000                : en:1
00:02:41.000                : en:2
00:14:28.000                : en:3
00:26:36.000                : en:4
00:35:34.000                : en:5
00:43:37.000                : en:6
00:55:01.000                : en:7
01:02:12.000                : en:8
01:12:04.000                : en:9
01:25:54.000                : en:10
01:34:17.000                : en:11
01:48:05.000                : en:12



Скриншоты:
[+] Всего файлов в раздаче - 1:
The.Wind.2018.AMZN.WEB-DL.1080p.seleZen.mkv3.97 GB

Показать еще раздачи по запросу обитель:
2019-07-12 U Обитель страха / The Wind (2018) WEB-DLRip-AVC от OlLanDGroup | D, P | iTunes 1.48 GB ↑ 31 ↓ 18
2019-07-11 U Обитель страха / The Wind (2018) WEB-DLRip от MegaPeer | iTunes 1.46 GB ↑ 264 ↓ 110
2018-02-25 U Обитель теней / Marrowbone (2017) BDRip 1080 от HELLYWOOD | iTunes 6.53 GB ↑ 109 ↓ 116
2018-02-24 U Обитель теней / Marrowbone (2017) BDRip 720p от HELLYWOOD | iTunes 3.74 GB ↑ 124 ↓ 98
2018-02-24 U Обитель теней / Marrowbone (2017) HDRip от Scarabey | iTunes 1К1.46 GB ↑ 69 ↓ 19
2018-02-22 U Обитель теней / Marrowbone (2017) WEB-DLRip-AVC от OlLanDGroup | iTunes 1.26 GB ↑ 105 ↓ 43
2018-02-22 U Обитель теней / Marrowbone (2017) BDRip от MegaPeer | iTunes 745.40 MB ↑ 219 ↓ 73

Отзывы
Зарегистрируйтесь чтобы добавить комментарий.
Обратная связь
Copyleft ©