↑↓Torrent.by
Поиск
Логин: Регистрация
Пароль: Восстановить пароль
Загрузка...

Алита: Боевой ангел / Alita: Battle Angel (2019) BDRip 1080p от селезень | D, P | iTunes

Скачать alita-boevoy-angel-battle-2019-bdrip-1080p-ot-selezen-d-p-itunes.torrent
U Магнитная ссылка Размер: 11.94 GB Раздают: 92 Качают: 174 Добавлен: 2019-07-12 06:54:15
Алита: Боевой ангел / Alita: Battle Angel (2019) BDRip 1080p от селезень | D, P | iTunes

Название: Алита: Боевой ангел
Оригинальное название: Alita: Battle Angel
Год выхода: 2019
Жанр: Фантастика, боевик, триллер, мелодрама, приключения
Режиссер: Роберт Родригес
В ролях: Роза Салазар, Кристоф Вальц, Дженнифер Коннелли, Махершала Али, Эд Скрейн, Джеки Эрл Хейли, Кин Джонсон, Хорхе Лендеборг мл., Лана Кондор, Идара Виктор

О фильме: Действие фильма происходит через 300 лет после Великой войны в XXVI веке. Доктор Идо находит останки женщины-киборга. После починки киборг ничего не помнит, но обнаруживает, что в состоянии пользоваться боевыми приемами киборгов. Начинаются поиски утерянных воспоминаний.

Страна: Канада, Аргентина, США
Студия: Twentieth Century Fox, Lightstorm Entertainment, Troublemaker Studios
Продолжительность: 02:01:57
Перевод(ы):
#1: Дублированный | iTunes
#2: Профессиональный многоголосый | СВ Студия
#3: Профессиональный многоголосый | HDRezka Studio

Качество: BDRip 1080p
Видео: MPEG-4 AVC, 1920x804, 12.6 Mbit/s, 23.976 fps
Звук:
Аудио #01: 48 kHz, AC3, 5.1, 384 Kbps | iTunes | RUS |
Аудио #02: 48 kHz, AC3, 2.0, 192 Kbps | СВ Студия | RUS |
Аудио #03: 48 kHz, AC3, 2.0, 192 Kbps | HDRezka Studio | RUS |
Аудио #04: 48 kHz, AC3, 5.1, 640 Kbps | Оригинал |  ENG |
Субтитры: Русские (Forced, full), английские

Релиз:


[+] MI
General
Unique ID                   : 174162935922988732408959468652318038707 (0x83068FB49C4B872DFC0033FBE76A1AB3)
Complete name               : D:Video111Alita.Battle.Angel.2019.BDRip.1080p.seleZen.mkv
Format                      : Matroska
Format version              : Version 4
File size                   : 11.9 GiB
Duration                    : 2 h 1 min
Overall bit rate            : 14.0 Mb/s
Movie name                  : Alita Battle Angel 2019 from селезень
Encoded date                : UTC 2019-07-12 00:24:15
Writing application         : mkvmerge v35.0.0 ('All The Love In The World') 64-bit
Writing library             : libebml v1.3.9 + libmatroska v1.5.2

Video
ID                          : 1
Format                      : AVC
Format/Info                 : Advanced Video Codec
Format profile              : High@L4.1
Format settings             : CABAC / 4 Ref Frames
Format settings, CABAC      : Yes
Format settings, Reference  : 4 frames
Codec ID                    : V_MPEG4/ISO/AVC
Duration                    : 2 h 1 min
Bit rate                    : 12.6 Mb/s
Width                       : 1 920 pixels
Height                      : 804 pixels
Display aspect ratio        : 2.40:1
Frame rate mode             : Constant
Frame rate                  : 23.976 (24000/1001) FPS
Color space                 : YUV
Chroma subsampling          : 4:2:0
Bit depth                   : 8 bits
Scan type                   : Progressive
Bits/(Pixel*Frame)          : 0.341
Stream size                 : 10.7 GiB (90%)
Title                       : CHD
Writing library             : x264 core 157 r2867+150 7e91e0e t_mod_Custom_2 [8-bit@all X86_64]
Encoding settings           : cabac=1 / ref=4 / deblock=1:-3:-3 / analyse=0x3:0x133 / me=umh / subme=11 / psy=1 / fade_compensate=0.00 / psy_rd=1.00:0.00 / mixed_ref=1 / me_range=64 / chroma_me=1 / trellis=2 / 8x8dct=1 / cqm=0 / deadzone=21,11 / fast_pskip=0 / chroma_qp_offset=-3 / threads=18 / lookahead_threads=3 / sliced_threads=0 / nr=0 / decimate=1 / interlaced=0 / bluray_compat=0 / constrained_intra=0 / fgo=0 / bframes=8 / b_pyramid=2 / b_adapt=2 / b_bias=0 / direct=3 / weightb=1 / open_gop=0 / weightp=2 / keyint=250 / keyint_min=23 / scenecut=40 / intra_refresh=0 / rc=crf / mbtree=0 / crf=18.0000 / qcomp=0.70 / qpmin=0:0:0 / qpmax=69:69:69 / qpstep=4 / ip_ratio=1.40 / pb_ratio=1.30 / aq=3:1.00 / aq-sensitivity=10.00 / aq-factor=1.00:1.00:1.00 / aq2=0 / aq3=0
Language                    : English
Default                     : Yes
Forced                      : No

Audio #1
ID                          : 2
Format                      : AC-3
Format/Info                 : Audio Coding 3
Commercial name             : Dolby Digital
Codec ID                    : A_AC3
Duration                    : 2 h 1 min
Bit rate mode               : Constant
Bit rate                    : 384 kb/s
Channel(s)                  : 6 channels
Channel layout              : L R C LFE Ls Rs
Sampling rate               : 48.0 kHz
Frame rate                  : 31.250 FPS (1536 SPF)
Bit depth                   : 16 bits
Compression mode            : Lossy
Stream size                 : 335 MiB (3%)
Title                       : iTunes
Language                    : Russian
Service kind                : Complete Main
Default                     : Yes
Forced                      : Yes

Audio #2
ID                          : 3
Format                      : AC-3
Format/Info                 : Audio Coding 3
Commercial name             : Dolby Digital
Codec ID                    : A_AC3
Duration                    : 2 h 1 min
Bit rate mode               : Constant
Bit rate                    : 192 kb/s
Channel(s)                  : 2 channels
Channel layout              : L R
Sampling rate               : 48.0 kHz
Frame rate                  : 31.250 FPS (1536 SPF)
Bit depth                   : 16 bits
Compression mode            : Lossy
Stream size                 : 167 MiB (1%)
Title                       : MVO [СВ Студия]
Language                    : Russian
Service kind                : Complete Main
Default                     : No
Forced                      : No

Audio #3
ID                          : 4
Format                      : AC-3
Format/Info                 : Audio Coding 3
Commercial name             : Dolby Digital
Codec ID                    : A_AC3
Duration                    : 2 h 1 min
Bit rate mode               : Constant
Bit rate                    : 192 kb/s
Channel(s)                  : 2 channels
Channel layout              : L R
Sampling rate               : 48.0 kHz
Frame rate                  : 31.250 FPS (1536 SPF)
Bit depth                   : 16 bits
Compression mode            : Lossy
Stream size                 : 167 MiB (1%)
Title                       : MVO [HDRezka Studio]
Language                    : Russian
Service kind                : Complete Main
Default                     : No
Forced                      : No

Audio #4
ID                          : 5
Format                      : AC-3
Format/Info                 : Audio Coding 3
Commercial name             : Dolby Digital
Codec ID                    : A_AC3
Duration                    : 2 h 1 min
Bit rate mode               : Constant
Bit rate                    : 640 kb/s
Channel(s)                  : 6 channels
Channel layout              : L R C LFE Ls Rs
Sampling rate               : 48.0 kHz
Frame rate                  : 31.250 FPS (1536 SPF)
Bit depth                   : 16 bits
Compression mode            : Lossy
Stream size                 : 558 MiB (5%)
Title                       : Original
Language                    : English
Service kind                : Complete Main
Default                     : No
Forced                      : No

Text #1
ID                          : 6
Format                      : UTF-8
Codec ID                    : S_TEXT/UTF8
Codec ID/Info               : UTF-8 Plain Text
Duration                    : 2 s 544 ms
Bit rate                    : 251 b/s
Count of elements           : 1
Stream size                 : 80.0 Bytes (0%)
Title                       : Forced
Language                    : Russian
Default                     : Yes
Forced                      : Yes

Text #2
ID                          : 7
Format                      : UTF-8
Codec ID                    : S_TEXT/UTF8
Codec ID/Info               : UTF-8 Plain Text
Duration                    : 1 h 56 min
Bit rate                    : 64 b/s
Count of elements           : 1318
Stream size                 : 55.4 KiB (0%)
Title                       : Full
Language                    : Russian
Default                     : No
Forced                      : No

Text #3
ID                          : 8
Format                      : UTF-8
Codec ID                    : S_TEXT/UTF8
Codec ID/Info               : UTF-8 Plain Text
Duration                    : 1 h 56 min
Bit rate                    : 46 b/s
Count of elements           : 1590
Stream size                 : 39.5 KiB (0%)
Title                       : SDH
Language                    : English
Default                     : No
Forced                      : No

Menu
00:00:00.000                : :绗?01 绔?
00:03:28.625                : :绗?02 绔?
00:07:51.680                : :绗?03 绔?
00:10:07.982                : :绗?04 绔?
00:13:06.703                : :绗?05 绔?
00:15:06.739                : :绗?06 绔?
00:18:04.542                : :绗?07 绔?
00:22:58.711                : :绗?08 绔?
00:25:35.325                : :绗?09 绔?
00:31:40.899                : :绗?10 绔?
00:33:29.216                : :绗?11 绔?
00:36:32.816                : :绗?12 绔?
00:38:30.892                : :绗?13 绔?
00:42:05.481                : :绗?14 绔?
00:45:58.214                : :绗?15 绔?
00:48:31.450                : :绗?16 绔?
00:52:57.007                : :绗?17 绔?
00:55:14.353                : :绗?18 绔?
01:00:39.761                : :绗?19 绔?
01:02:56.564                : :绗?20 绔?
01:05:16.788                : :绗?21 绔?
01:10:50.496                : :绗?22 绔?
01:13:37.288                : :绗?23 绔?
01:16:35.216                : :绗?24 绔?
01:18:52.227                : :绗?25 绔?
01:22:48.297                : :绗?26 绔?
01:24:55.340                : :绗?27 绔?
01:28:25.217                : :绗?28 绔?
01:33:18.551                : :绗?29 绔?
01:36:08.763                : :绗?30 绔?
01:41:54.692                : :绗?31 绔?
01:45:23.442                : :绗?32 绔?
01:48:16.490                : :绗?33 绔?
01:51:43.655                : :绗?34 绔?
01:54:43.668                : :绗?35 绔?
01:56:51.504                : :绗?36 绔?



Скриншоты:
[+] Всего файлов в раздаче - 1:
Alita.Battle.Angel.2019.BDRip.1080p.seleZen.mkv11.94 GB

Показать еще раздачи по запросу алита:
2019-08-11 U Алита: Боевой ангел / Alita: Battle Angel (2019) UHD BDRip-HEVC 1440p | HDR | D | Локализованная версия | Лицензия 8.90 GB ↑ 44 ↓ 18
2019-07-25 U Алита: Боевой ангел / Alita: Battle Angel (2019) BDRip 1080p | 60 fps | Локализованная версия | D, P | Лицензия 8.55 GB ↑ 56 ↓ 54
2019-07-19 U Алита: Боевой ангел / Alita: Battle Angel (2019) BDRip 720p от Scarabey | Лицензия 6.06 GB ↑ 95 ↓ 70
2019-07-16 U Алита: Боевой ангел / Alita: Battle Angel (2019) BDRip-AVC от ExKinoRay | Лицензия 745.68 MB ↑ 61 ↓ 6
2019-07-16 U Алита: Боевой ангел / Alita: Battle Angel (2019) BDRip 1080p от селезень | 3D-Video | HSBS | D, P | Лицензия 14.53 GB ↑ 76 ↓ 56
2019-07-15 U Алита: Боевой ангел / Alita: Battle Angel (2019) BDRip 1080p от qqss44 & MegaPeer | Локализованная версия | Лицензия 7.76 GB ↑ 197 ↓ 151
2019-07-15 U Алита: Боевой ангел / Alita: Battle Angel (2019) BDRip 720p от HELLYWOOD | Локализованная версия | Лицензия 5.76 GB ↑ 254 ↓ 163

Отзывы
Зарегистрируйтесь чтобы добавить комментарий.
Обратная связь
Copyleft ©