↑↓Torrent.by
Поиск
Логин: Регистрация
Пароль: Восстановить пароль
Загрузка...

Алита: Боевой ангел / Alita: Battle Angel (2019) WEB-DLRip-AVC | P | Open Matte

Скачать alita-boevoy-angel-battle-2019-web-dlrip-avc-p-open-matte.torrent
U Магнитная ссылка Размер: 3.56 GB Раздают: 62 Качают: 11 Добавлен: 2019-07-12 06:54:25
Алита: Боевой ангел / Alita: Battle Angel (2019) WEB-DLRip-AVC | P | Open Matte

Название: Алита: Боевой ангел
Оригинальное название: Alita: Battle Angel
Год выхода: 2019
Жанр:  Фантастика, боевик, триллер, приключения
Режиссер: Роберт Родригес
В ролях: Роза Салазар, Кристоф Вальц, Дженнифер Коннелли, Махершала Али, Эд Скрейн, Джеки Эрл Хейли, Кин Джонсон, Хорхе Лендеборг мл., Лана Кондор, Идара Виктор

О фильме:
Действие фильма происходит через 300 лет после Великой войны в XXVI веке. Доктор Идо находит останки женщины-киборга. После починки киборг ничего не помнит, но обнаруживает, что в состоянии пользоваться боевыми приемами киборгов. Начинаются поиски утерянных воспоминаний.

Страна: США
Студия: Twentieth Century Fox, Lightstorm Entertainment, Troublemaker Studios
Продолжительность: 02:02:04
Перевод: Профессиональный многоголосый закадровый

Файл
Формат: Matroska
Качество: WEB-DLRip-AVC | Open Matte
Видео: x264, 1138x640, ~3402 Кbps, 23,976 fps
Аудио 1: AC3, 2 ch, ~192 Kbps - | Русский | - (CВ Студия)
Аудио 2: AC3, 2 ch, ~192 Kbps - | Русский | - (HDRezka Studio)
Аудио 3: AC3, 6 ch, ~384 Kbps - | Английский | - ENG
Субтитры: Russian, English
Формат субтитров: softsub (SRT)

***Релиз от: -=DoMiNo=-


[+] M/I
x264 info: frame I:1581  Avg QP:17.86  size: 83349
x264 info: frame P:38166 Avg QP:18.65  size: 36395
x264 info: frame B:135877 Avg QP:19.97  size: 11734
x264 info: consecutive B-frames:  2.3%  3.0%  9.1% 17.3% 10.2% 53.8%  1.1%  1.1%  0.2%  0.2%  0.1%  1.3%  0.0%  0.0%  0.0%  0.0%  0.2%

General
Unique ID                   : 91661932328522379649157404420313786281 (0x44F5722E93654FF7121896C6FC4527A9)
Complete name               : Алита -Боевой ангел.(2019).WEB-DLRip-AVC.O.M.[-=DoMiNo=-].mkv
Format                      : Matroska
Format version              : Version 4
File size                   : 3.56 GiB
Duration                    : 2 h 2 min
Overall bit rate            : 4 172 kb/s
Movie name                  : Алита: Боевой ангел / Alita: Battle Angel (2019)
Encoded date                : UTC 2019-07-11 05:21:55
Writing application         : mkvmerge v35.0.0 ('All The Love In The World') 64-bit
Writing library             : libebml v1.3.9 + libmatroska v1.5.2
Attachments                 : poster / poster

Video
ID                          : 1
Format                      : AVC
Format/Info                 : Advanced Video Codec
Format profile              : High@L4.1
Format settings             : CABAC / 11 Ref Frames
Format settings, CABAC      : Yes
Format settings, Reference  : 11 frames
Codec ID                    : V_MPEG4/ISO/AVC
Duration                    : 2 h 2 min
Bit rate                    : 3 402 kb/s
Width                       : 1 138 pixels
Height                      : 640 pixels
Display aspect ratio        : 16:9
Frame rate mode             : Constant
Frame rate                  : 23.976 (24000/1001) FPS
Color space                 : YUV
Chroma subsampling          : 4:2:0
Bit depth                   : 8 bits
Scan type                   : Progressive
Bits/(Pixel*Frame)          : 0.195
Stream size                 : 2.90 GiB (82%)
Title                       : RIP_BY_-=DoMiNo=-
Writing library             : x264 core 157 r2969 d4099dd
Encoding settings           : cabac=1 / ref=11 / deblock=1:-3:-3 / analyse=0x3:0x133 / me=umh / subme=11 / psy=1 / psy_rd=1.00:0.20 / mixed_ref=1 / me_range=56 / chroma_me=1 / trellis=2 / 8x8dct=1 / cqm=0 / deadzone=21,11 / fast_pskip=1 / chroma_qp_offset=-3 / threads=6 / lookahead_threads=1 / sliced_threads=0 / nr=0 / decimate=1 / interlaced=0 / bluray_compat=0 / constrained_intra=0 / bframes=16 / b_pyramid=2 / b_adapt=2 / b_bias=0 / direct=1 / weightb=1 / open_gop=0 / weightp=2 / keyint=240 / keyint_min=24 / scenecut=40 / intra_refresh=0 / rc_lookahead=120 / rc=crf / mbtree=0 / crf=18.0 / qcomp=0.80 / qpmin=16 / qpmax=69 / qpstep=4 / vbv_maxrate=50000 / vbv_bufsize=62500 / crf_max=0.0 / nal_hrd=none / filler=0 / ip_ratio=1.40 / pb_ratio=1.30 / aq=3:0.80
Language                    : English
Default                     : Yes
Forced                      : No
Color range                 : Limited
Color primaries             : BT.709
Transfer characteristics    : BT.709
Matrix coefficients         : BT.709

Audio #1
ID                          : 2
Format                      : AC-3
Format/Info                 : Audio Coding 3
Commercial name             : Dolby Digital
Codec ID                    : A_AC3
Duration                    : 2 h 1 min
Bit rate mode               : Constant
Bit rate                    : 192 kb/s
Channel(s)                  : 2 channels
Channel layout              : L R
Sampling rate               : 48.0 kHz
Frame rate                  : 31.250 FPS (1536 SPF)
Bit depth                   : 16 bits
Compression mode            : Lossy
Stream size                 : 167 MiB (5%)
Title                       : MVO - СВ Студия
Language                    : Russian
Service kind                : Complete Main
Default                     : Yes
Forced                      : No

Audio #2
ID                          : 3
Format                      : AC-3
Format/Info                 : Audio Coding 3
Commercial name             : Dolby Digital
Codec ID                    : A_AC3
Duration                    : 2 h 1 min
Bit rate mode               : Constant
Bit rate                    : 192 kb/s
Channel(s)                  : 2 channels
Channel layout              : L R
Sampling rate               : 48.0 kHz
Frame rate                  : 31.250 FPS (1536 SPF)
Bit depth                   : 16 bits
Compression mode            : Lossy
Stream size                 : 167 MiB (5%)
Title                       : MVO_[HDRezka]
Language                    : Russian
Service kind                : Complete Main
Default                     : No
Forced                      : No

Audio #3
ID                          : 4
Format                      : AC-3
Format/Info                 : Audio Coding 3
Commercial name             : Dolby Digital
Codec ID                    : A_AC3
Duration                    : 2 h 1 min
Bit rate mode               : Constant
Bit rate                    : 384 kb/s
Channel(s)                  : 6 channels
Channel layout              : L R C LFE Ls Rs
Sampling rate               : 48.0 kHz
Frame rate                  : 31.250 FPS (1536 SPF)
Bit depth                   : 16 bits
Compression mode            : Lossy
Stream size                 : 335 MiB (9%)
Title                       : ENG
Language                    : English
Service kind                : Complete Main
Default                     : No
Forced                      : No

Text #1
ID                          : 5
Format                      : UTF-8
Codec ID                    : S_TEXT/UTF8
Codec ID/Info               : UTF-8 Plain Text
Duration                    : 1 h 56 min
Bit rate                    : 64 b/s
Count of elements           : 1318
Stream size                 : 55.4 KiB (0%)
Title                       : Full (Focs)
Language                    : Russian
Default                     : No
Forced                      : No

Text #2
ID                          : 6
Format                      : UTF-8
Codec ID                    : S_TEXT/UTF8
Codec ID/Info               : UTF-8 Plain Text
Duration                    : 1 h 55 min
Bit rate                    : 41 b/s
Count of elements           : 1347
Stream size                 : 34.9 KiB (0%)
Title                       : Full
Language                    : English
Default                     : No
Forced                      : No

Text #3
ID                          : 7
Format                      : UTF-8
Codec ID                    : S_TEXT/UTF8
Codec ID/Info               : UTF-8 Plain Text
Duration                    : 1 h 55 min
Bit rate                    : 46 b/s
Count of elements           : 1588
Stream size                 : 39.4 KiB (0%)
Title                       : SDH
Language                    : English
Default                     : No
Forced                      : No

Menu
00:00:00.000                : :Chapter 01
00:03:29.626                : :Chapter 02
00:07:52.680                : :Chapter 03
00:10:08.982                : :Chapter 04
00:13:07.702                : :Chapter 05
00:15:07.738                : :Chapter 06
00:18:05.539                : :Chapter 07
00:22:59.707                : :Chapter 08
00:25:36.321                : :Chapter 09
00:31:41.893                : :Chapter 10
00:33:30.209                : :Chapter 11
00:36:33.809                : :Chapter 12
00:38:31.885                : :Chapter 13
00:42:06.473                : :Chapter 14
00:45:59.204                : :Chapter 15
00:48:32.439                : :Chapter 16
00:52:57.995                : :Chapter 17
00:55:15.339                : :Chapter 18
01:00:40.746                : :Chapter 19
01:02:57.548                : :Chapter 20
01:05:17.770                : :Chapter 21
01:10:51.477                : :Chapter 22
01:13:38.268                : :Chapter 23
01:16:36.194                : :Chapter 24
01:18:53.205                : :Chapter 25
01:22:49.274                : :Chapter 26
01:24:56.316                : :Chapter 27
01:28:26.192                : :Chapter 28
01:33:19.527                : :Chapter 29
01:36:09.738                : :Chapter 30
01:41:55.667                : :Chapter 31
01:45:24.417                : :Chapter 32
01:48:17.464                : :Chapter 33
01:51:44.628                : :Chapter 34
01:54:44.640                : :Chapter 35
01:56:52.476                : :Chapter 36



Скриншоты:
[+] Всего файлов в раздаче - 1:
Алита -Боевой ангел.(2019).WEB-DLRip-AVC.O.M.[-=DoMiNo=-].mkv3.56 GB

Показать еще раздачи по запросу алита:
Вчера U Алита: Боевой ангел / Alita: Battle Angel (2019) BDRip от Twister & ExKinoRay | Локализованная версия | Лицензия 2.18 GB ↑ 64 ↓ 26
Вчера U Алита: Боевой ангел / Alita: Battle Angel (2019) Blu-Ray EUR 1080p | 3D-Video | Лицензия 44.69 GB ↑ 36 ↓ 10
Вчера U Алита: Боевой ангел / Alita: Battle Angel (2019) BDRip-AVC от HELLYWOOD | Локализованная версия | Лицензия 2.91 GB ↑ 75 ↓ 15
2019-07-17 U Алита: Боевой ангел / Alita: Battle Angel (2019) BDRip-AVC от HELLYWOOD | Локализованная версия | Лицензия 1.46 GB ↑ 57 ↓ 28
2019-07-16 U Алита: Боевой ангел / Alita: Battle Angel (2019) UHD BDRemux 2160p от ExKinoRay | 4K | HDR | D, P | Локализованная версия | Лицензия 41.88 GB ↑ 48 ↓ 119
2019-07-16 U Алита: Боевой ангел / Alita: Battle Angel (2019) BDRip-HEVC 1080p от HANNIBAL | Лицензия 8.32 GB ↑ 149 ↓ 95
2019-07-16 U Алита: Боевой ангел / Alita: Battle Angel (2019) BDRip 1080p от Ash61 | 3D-Video | halfOU | Лицензия 12.55 GB ↑ 193 ↓ 201

Отзывы
Зарегистрируйтесь чтобы добавить комментарий.
Обратная связь
Copyleft ©