↑↓Torrent.by
Поиск
Логин: Регистрация
Пароль: Восстановить пароль
Загрузка...

Букашки 2 / Minuscule - Les mandibules du bout du monde (2018) BDRip 720p от селезень | iTunes

Скачать bukashki-2-minuscule-les-mandibules-du-bout-monde-2018-bdrip-720p-ot-selezen-itunes.torrent
U Магнитная ссылка Размер: 2.24 GB Раздают: 52 Качают: 33 Добавлен: 2019-07-12 06:54:28
Букашки 2 / Minuscule - Les mandibules du bout du monde (2018) BDRip 720p от селезень | iTunes

Название: Букашки 2
Оригинальное название: Minuscule - Les mandibules du bout du monde
Год выхода: 2018
Жанр: Мультфильм, комедия, приключения, семейный
Режиссер: Хелен Жиро, Томас Сабо
В ролях: Бруно Саломон, Тьерри Фремон, Стефани Кулон, Жан Нанга, Сара Коэн-Хадриа, Жан-Поль Гуйон, Бо Готье де Кермоаль, Франк Бенезек, Люк Морван, Хуэйфан Лю

О фильме: Герои перемещаются из Франции на тропический остров Гваделупа, где их ждут захватывающие приключения в духе «Пиратов Карибского моря» и романтическая история в духе «Ромео и Джульетты».

Страна: Франция, Китай, Гваделупа
Студия: Futurikon, IfilmEntertainment, France 3 Cinéma
Продолжительность: 01:32:14
Перевод: Не требуется | iTunes

Качество: BDRip 720p
Видео: MPEG-4 AVC, 1280x536, 3100 Кbit/s, 23.976 fps
Звук:
Аудио: 48 kHz, AC3, 5.1, 384 Kbps

*** Примечание: Релиз с 2D-3D издания, местами есть полосы по бокам.

Релиз:


[+] MI
General
Unique ID                   : 98657591242108224487919135792567569228 (0x4A38C2CBBF2D4CB2452B806F67924B4C)
Complete name               : D:Video111Minuscule.2.Les.Mandibules.Du.Bout.Du.Monde.2018.BDRip.720p.seleZen.mkv
Format                      : Matroska
Format version              : Version 4
File size                   : 2.24 GiB
Duration                    : 1 h 32 min
Overall bit rate            : 3 482 kb/s
Movie name                  : Minuscule 2 Les Mandibules Du Bout Du Monde 2018 from селезень
Encoded date                : UTC 2019-07-11 19:29:59
Writing application         : mkvmerge v35.0.0 ('All The Love In The World') 64-bit
Writing library             : libebml v1.3.9 + libmatroska v1.5.2

Video
ID                          : 1
Format                      : AVC
Format/Info                 : Advanced Video Codec
Format profile              : High@L4.1
Format settings             : CABAC / 12 Ref Frames
Format settings, CABAC      : Yes
Format settings, Reference  : 12 frames
Codec ID                    : V_MPEG4/ISO/AVC
Duration                    : 1 h 32 min
Bit rate                    : 3 100 kb/s
Width                       : 1 280 pixels
Height                      : 536 pixels
Display aspect ratio        : 2.40:1
Frame rate mode             : Constant
Frame rate                  : 23.976 (24000/1001) FPS
Color space                 : YUV
Chroma subsampling          : 4:2:0
Bit depth                   : 8 bits
Scan type                   : Progressive
Bits/(Pixel*Frame)          : 0.188
Stream size                 : 1.99 GiB (89%)
Title                       : seleZen
Writing library             : x264 core 148 r2705kMod 3f5ed56
Encoding settings           : cabac=1 / ref=12 / deblock=1:-2:-2 / analyse=0x3:0x133 / me=umh / subme=10 / psy=1 / fade_compensate=0.00 / psy_rd=1.20:0.05 / mixed_ref=1 / me_range=32 / chroma_me=1 / trellis=2 / 8x8dct=1 / cqm=0 / deadzone=21,11 / fast_pskip=0 / chroma_qp_offset=-3 / threads=12 / lookahead_threads=2 / sliced_threads=0 / nr=0 / decimate=0 / interlaced=0 / bluray_compat=0 / constrained_intra=0 / fgo=0 / bframes=8 / b_pyramid=2 / b_adapt=2 / b_bias=0 / direct=3 / weightb=1 / open_gop=0 / weightp=2 / keyint=240 / keyint_min=23 / scenecut=40 / intra_refresh=0 / rc_lookahead=50 / rc=2pass / mbtree=0 / bitrate=3100 / ratetol=1.0 / qcomp=0.60 / qpmin=0 / qpmax=51 / qpstep=4 / cplxblur=20.0 / qblur=0.5 / vbv_maxrate=50000 / vbv_bufsize=62500 / nal_hrd=none / filler=0 / ip_ratio=1.40 / pb_ratio=1.30 / aq=3:0.80
Language                    : English
Default                     : Yes
Forced                      : No

Audio
ID                          : 2
Format                      : AC-3
Format/Info                 : Audio Coding 3
Commercial name             : Dolby Digital
Codec ID                    : A_AC3
Duration                    : 1 h 32 min
Bit rate mode               : Constant
Bit rate                    : 384 kb/s
Channel(s)                  : 6 channels
Channel layout              : L R C LFE Ls Rs
Sampling rate               : 48.0 kHz
Frame rate                  : 31.250 FPS (1536 SPF)
Bit depth                   : 16 bits
Compression mode            : Lossy
Stream size                 : 253 MiB (11%)
Service kind                : Complete Main
Default                     : Yes
Forced                      : Yes

Menu
00:00:00.000                : :Chapitre 01
00:10:32.632                : :Chapitre 02
00:21:44.845                : :Chapitre 03
00:34:11.299                : :Chapitre 04
00:45:11.834                : :Chapitre 05
00:56:38.019                : :Chapitre 06
01:07:22.163                : :Chapitre 07
01:19:37.564                : :Chapitre 08



Скриншоты:
[+] Всего файлов в раздаче - 1:
Minuscule.2.Les.Mandibules.Du.Bout.Du.Monde.2018.BDRip.720p.seleZen.mkv2.24 GB

Похожие раздачи по запросу - букашки:
2019-07-12 U Букашки 2 / Minuscule - Les mandibules du bout du monde (2018) BDRip 1080p от селезень | iTunes 4.43 GB ↑ 203 ↓ 139
2019-07-12 U Букашки 2 / Minuscule - Les mandibules du bout du monde (2018) BDRip от MegaPeer | iTunes 1К1.46 GB ↑ 215 ↓ 87
2014-03-31 U Букашки / Minuscule (S01) (2006-2007) DVDRip 2.91 GB ↑ 400 ↓ 6
2014-03-28 U Букашки / Minuscule [S2: s01-98x98] (2012) DVDRip 2.66 GB ↑ 262 ↓ 122
2013-11-09 U Букашки! 3D / Bugs! (2003) BDRip-AVC от HQCLUB 1К1.16 GB ↑ 227 ↓ 13

Отзывы
Зарегистрируйтесь чтобы добавить комментарий.
Обратная связь
Copyleft ©