↑↓Torrent.by
Поиск
Логин: Регистрация
Пароль: Восстановить пароль
Загрузка...

Обитель страха / The Wind (2018) WEB-DLRip-AVC от OlLanDGroup | D, P | iTunes

Скачать obitel-straha-the-wind-2018-web-dlrip-avc-ot-ollandgroup-d-p-itunes.torrent
U Магнитная ссылка Размер: 1.48 GB Раздают: 31 Качают: 18 Добавлен: 2019-07-12 06:55:18
Обитель страха / The Wind (2018) WEB-DLRip-AVC от OlLanDGroup | D, P | iTunes

Обитель страха / The Wind
«It never stops»

Год выпуска: 2018
Страна: США
Производство: Divide / Conquer, Mind Hive Films, Soapbox Films
Жанр:  Ужасы, вестерн

Режиссёр: Эмма Тамми
В ролях: Майлз Андерсон, Кейтлин Джерард, Джулия Голден Теллес, Дилан МакТи, Мартин Си Паттерсон, Эшли Цукерман

Перевод: Дублированный | [iTunes], Профессиональный многоголосый | [HDRezka Studio]
Субтитры: Русские (полные), английские (полные, SDH)
Реклама: Отсутствует

Описание: Дикий Запад, конец XIX века. Где-то в бескрайних прериях живёт молодая пара. Муж часто отлучается на заработки в город и оставляет Лиззи одну, поэтому она очень обрадовалась, когда рядом поселилась ещё одна семейная пара. Теперь женщине есть с кем поговорить и провести время. Но забеременев, новая подруга начинает странно себя вести и утверждать, что где-то поблизости бродит нечто потустороннее.

Качество: WEB-DLRip-AVC | AMZN Version |
Продолжительность: 01:27:58

Формат: MKV
Видео кодек: MPEG-4 AVC
Аудио кодек: AC3
Видео: 1024x426 (2.40:1), 24,000 fps, x264 ~1 825 kbps avg, 0.174 bit/pixel
Аудио #1: 48 kHz, AC3 Dolby Digital, 3/2 (L,C,R,l,r) + LFE ch, ~384.00 kbps avg | RUS (iTunes)
Аудио #2: 48 kHz, AC3 Dolby Digital, 2 (L,R) ch, ~192.00 kbps avg | RUS (HDRezka Studio)

Дата премьеры (мир): 10 сентября 2018
Дата премьеры (РФ): 6 июня 2019, «Наше Кино»
Цифровой релиз:

Релиз:


[+] MediaInfo

Общее
Уникальный идентификатор: 251324397465849988784544656434500071426 (0xBD13517B064A63D683D8E04DA3C1F002)
Полное имя: F:OlLanDGroupThe.Wind.2018.AMZN.WEB-DLRip(AVC).OlLanDGroup.mkv
Формат: Matroska
Версия формата: Version 4 / Version 2
Размер файла: 1,48 Гбайт
Продолжительность: 1 ч. 27 м.
Общий поток: 2402 Кбит/сек
Название фильма: The Wind 2018 #TorpedoUK#
Дата кодирования: UTC 2019-07-11 12:38:08
Программа кодирования: mkvmerge v29.0.0 ('Like It Or Not') 64-bit
Библиотека кодирования: libebml v1.3.6 + libmatroska v1.4.9

Видео
Идентификатор: 1
Формат: AVC
Формат/Информация: Advanced Video Codec
Профиль формата: High@L4.1
Параметр CABAC формата: Да
Параметр ReFrames формата: 10 кадров
Идентификатор кодека: V_MPEG4/ISO/AVC
Продолжительность: 1 ч. 27 м.
Битрейт: 1825 Кбит/сек
Ширина: 1024 пикселя
Высота: 426 пикселей
Соотношение сторон: 2,40:1
Режим частоты кадров: Постоянный
Частота кадров: 24,000 кадра/сек
Цветовое пространство: YUV
Субдискретизация насыщенности: 4:2:0
Битовая глубина: 8 бит
Тип развёртки: Прогрессивная
Бит/(Пиксели*Кадры): 0.174
Размер потока: 1,12 Гбайт (76%)
Библиотека кодирования: x264 core 146 r2538 121396c
Настройки программы: cabac=1 / ref=10 / deblock=1:-2:-3 / analyse=0x3:0x113 / me=umh / subme=10 / psy=1 / psy_rd=0.97:0.05 / mixed_ref=1 / me_range=48 / chroma_me=1 / trellis=2 / 8x8dct=1 / cqm=0 / deadzone=21,11 / fast_pskip=1 / chroma_qp_offset=-3 / threads=6 / lookahead_threads=1 / sliced_threads=0 / nr=0 / decimate=1 / interlaced=0 / bluray_compat=0 / constrained_intra=0 / bframes=11 / b_pyramid=2 / b_adapt=2 / b_bias=0 / direct=3 / weightb=1 / open_gop=0 / weightp=2 / keyint=240 / keyint_min=24 / scenecut=40 / intra_refresh=0 / rc_lookahead=40 / rc=2pass / mbtree=0 / bitrate=1825 / ratetol=1.0 / qcomp=0.60 / qpmin=0 / qpmax=69 / qpstep=4 / cplxblur=20.0 / qblur=0.5 / vbv_maxrate=50000 / vbv_bufsize=62500 / nal_hrd=none / filler=0 / ip_ratio=1.40 / pb_ratio=1.30 / aq=1:1.00
Язык: English
Default: Да
Forced: Нет

Аудио #1
Идентификатор: 2
Формат: AC-3
Формат/Информация: Audio Coding 3
Расширение режима: CM (complete main)
Параметр Endianness формата: Big
Идентификатор кодека: A_AC3
Продолжительность: 1 ч. 27 м.
Вид битрейта: Постоянный
Битрейт: 384 Кбит/сек
Каналы: 6 каналов
Расположение каналов: Front: L C R, Side: L R, LFE
Частота: 48,0 КГц
Частота кадров: 31,250 кадров/сек (1536 spf)
Битовая глубина: 16 бит
Метод сжатия: С потерями
Размер потока: 242 Мбайт (16%)
Заголовок: DUB [iTunes]
Язык: Russian
Default: Да
Forced: Нет

Аудио #2
Идентификатор: 3
Формат: AC-3
Формат/Информация: Audio Coding 3
Расширение режима: CM (complete main)
Параметр Endianness формата: Big
Идентификатор кодека: A_AC3
Продолжительность: 1 ч. 27 м.
Вид битрейта: Постоянный
Битрейт: 192 Кбит/сек
Каналы: 2 канала
Расположение каналов: Front: L R
Частота: 48,0 КГц
Частота кадров: 31,250 кадров/сек (1536 spf)
Битовая глубина: 16 бит
Метод сжатия: С потерями
Размер потока: 121 Мбайт (8%)
Заголовок: MVO [HDRezka Studio]
Язык: Russian
Default: Нет
Forced: Нет

Текст #1
Идентификатор: 4
Формат: UTF-8
Идентификатор кодека: S_TEXT/UTF8
Идентификатор кодека/Информация: UTF-8 Plain Text
Продолжительность: 1 ч. 19 м.
Битрейт: 31 бит/сек
Count of elements: 411
Размер потока: 18,2 Кбайт (0%)
Заголовок: Full
Язык: Russian
Default: Нет
Forced: Нет

Текст #2
Идентификатор: 5
Формат: UTF-8
Идентификатор кодека: S_TEXT/UTF8
Идентификатор кодека/Информация: UTF-8 Plain Text
Продолжительность: 1 ч. 16 м.
Битрейт: 19 бит/сек
Count of elements: 444
Размер потока: 10,8 Кбайт (0%)
Заголовок: Full
Язык: English
Default: Нет
Forced: Нет

Текст #3
Идентификатор: 6
Формат: UTF-8
Идентификатор кодека: S_TEXT/UTF8
Идентификатор кодека/Информация: UTF-8 Plain Text
Продолжительность: 1 ч. 27 м.
Битрейт: 22 бит/сек
Count of elements: 669
Размер потока: 14,1 Кбайт (0%)
Заголовок: SDH
Язык: English
Default: Нет
Forced: Нет

Меню
00:00:00.000: en:1
00:02:41.000: en:2
00:14:28.000: en:3
00:26:36.000: en:4
00:35:34.000: en:5
00:43:37.000: en:6
00:55:01.000: en:7
01:02:12.000: en:8
01:12:04.000: en:9
01:25:54.000: en:10
01:34:17.000: en:11
01:48:05.000: en:12



Скриншоты:
[+] Всего файлов в раздаче - 1:
The.Wind.2018.AMZN.WEB-DLRip(AVC).OlLanDGroup.mkv1.48 GB

Показать еще раздачи по запросу обитель:
2019-07-11 U Обитель страха / The Wind (2018) WEB-DL 1080p от селезень | D, P | iTunes 3.97 GB ↑ 69 ↓ 64
2019-07-11 U Обитель страха / The Wind (2018) WEB-DLRip от MegaPeer | iTunes 1.46 GB ↑ 264 ↓ 110
2018-02-25 U Обитель теней / Marrowbone (2017) BDRip 1080 от HELLYWOOD | iTunes 6.53 GB ↑ 109 ↓ 116
2018-02-24 U Обитель теней / Marrowbone (2017) BDRip 720p от HELLYWOOD | iTunes 3.74 GB ↑ 124 ↓ 98
2018-02-24 U Обитель теней / Marrowbone (2017) HDRip от Scarabey | iTunes 1К1.46 GB ↑ 69 ↓ 19
2018-02-22 U Обитель теней / Marrowbone (2017) WEB-DLRip-AVC от OlLanDGroup | iTunes 1.26 GB ↑ 105 ↓ 43
2018-02-22 U Обитель теней / Marrowbone (2017) BDRip от MegaPeer | iTunes 745.40 MB ↑ 219 ↓ 73

Отзывы
Зарегистрируйтесь чтобы добавить комментарий.
Обратная связь
Copyleft ©