↑↓Torrent.by
Поиск
Логин: Регистрация
Пароль: Восстановить пароль
Загрузка...

25-й час [01-12 из 12] (2016) HDTVRip-AVC от GeneralFilm

Скачать 25-y-chas-01-12-iz-2016-hdtvrip-avc-ot-generalfilm.torrent
U Магнитная ссылка Размер: 8.52 GB Раздают: 35 Качают: 16 Добавлен: 2019-07-12 06:55:31
25-й час [01-12 из 12] (2016) HDTVRip-AVC от GeneralFilm

Год выпуска: 2016
Жанр:  Криминал, драма, фантастика
Выпущено: Россия, Украина, Кинокомпания "StarMedia"
Режиссер: Николай Михайлов (III)
В ролях: Антон Хабаров, Татьяна Арнтгольц, Жанна Эппле, Александр Кобзарь, Таисия Шипилова, Николай Иванов (II), Николай Боклан, Виктория Билан, Валерий Сковронский, Сергей Романюк, Фёдор Гуринец, Бесо Гатаев, Вероника Лукьяненко, Константин Самоуков, Пётр Сова, Евгений Капорин, Сергей Сафрончик, Фёдор Годына, Виктория Карпинская, Александр Яцко, Виктория Малекторович, Борис Хвошнянский, Давид Бабаев, Валерий Шептекита, Лариса Кадочникова, Евгений Лебедин, Станислав Боклан, Андрей Дебрин

О фильме: Анна - журналистка, которая обладает даром поворачивать время вспять. Она обладает способностью, которой, возможно, больше нет ни у кого на свете. Эта способность досталась ей, лучшей журналистке популярной в городе газеты "24 часа", во время одного из освещаемых ею происшествий. Анна спасла внука старого часовщика. В знак благодарности старик подарил ей необычные часы, которые, как оказалось, могли "отмотать" время назад на один час, тем самым дав девушке возможность исправить ситуацию. Они включаются каждый раз, когда Анна или близкие ей люди попадают в настоящую беду. Девушка использует свой дар, чтобы предотвращать человеческие трагедии, свидетелем которых так часто приходится становиться журналисту.

Качество: HDTVRip-AVC
Видео: MPEG-4 AVC, ~ 2000  Кбит/с, 1024x576, 25 кадр/с
Аудио: Русский (AC3, 2 ch, 192 Кбит/с)
Продолжительность: 12 x ~ 00:46:00
Перевод: Не требуется
Субтитры: нет

Релиз:


[+] MediaInfo

Общее
Уникальный идентификатор                 : 210033782828677163983855786107689548477 (0x9E030900C99EC320A38E3C256E68BABD)
Полное имя                               : D:25-j chas.HDTVRip.(AVC).GeneralFilm�1.25-j chas.HDTVRip.(AVC).GeneralFilm.mkv
Формат                                   : Matroska
Версия формата                           : Version 2
Размер файла                             : 722 Мбайт
Продолжительность                        : 46 м. 1 с.
Общий поток                              : 2194 Кбит/сек
Дата кодирования                         : UTC 2019-07-01 16:28:37
Программа кодирования                    : mkvmerge v7.8.0 ('River Man') 32bit built on Apr  3 2015 12:11:22
Библиотека кодирования                   : libebml v1.3.1 + libmatroska v1.4.2

Видео
Идентификатор                            : 1
Формат                                   : AVC
Формат/Информация                        : Advanced Video Codec
Профиль формата                          : High@L4.1
Параметр CABAC формата                   : Да
Параметр ReFrames формата                : 9 кадров
Идентификатор кодека                     : V_MPEG4/ISO/AVC
Продолжительность                        : 46 м. 1 с.
Битрейт                                  : 2000 Кбит/сек
Ширина                                   : 1024 пикселя
Высота                                   : 576 пикселей
Соотношение сторон                       : 16:9
Режим частоты кадров                     : Постоянный
Частота кадров                           : 25,000 кадров/сек
Цветовое пространство                    : YUV
Субдискретизация насыщенности            : 4:2:0
Битовая глубина                          : 8 бит
Тип развёртки                            : Прогрессивная
Бит/(Пиксели*Кадры)                      : 0.136
Размер потока                            : 645 Мбайт (89%)
Библиотека кодирования                   : x264 core 146 r2538 121396c
Настройки программы                      : cabac=1 / ref=9 / deblock=1:-2:-1 / analyse=0x3:0x113 / me=umh / subme=9 / psy=1 / psy_rd=1.00:0.15 / mixed_ref=1 / me_range=32 / chroma_me=1 / trellis=2 / 8x8dct=1 / cqm=0 / deadzone=21,11 / fast_pskip=0 / chroma_qp_offset=-3 / threads=18 / lookahead_threads=3 / sliced_threads=0 / nr=0 / decimate=1 / interlaced=0 / bluray_compat=0 / constrained_intra=0 / bframes=9 / b_pyramid=2 / b_adapt=2 / b_bias=0 / direct=3 / weightb=1 / open_gop=0 / weightp=2 / keyint=250 / keyint_min=25 / scenecut=40 / intra_refresh=0 / rc_lookahead=40 / rc=2pass / mbtree=0 / bitrate=2000 / ratetol=1.0 / qcomp=0.60 / qpmin=0 / qpmax=69 / qpstep=4 / cplxblur=20.0 / qblur=0.5 / vbv_maxrate=14000 / vbv_bufsize=14000 / nal_hrd=none / filler=0 / ip_ratio=1.40 / pb_ratio=1.30 / aq=2:1.00
Default                                  : Да
Forced                                   : Нет
Цветовой диапазон                        : Limited
Основные цвета                           : BT.709
Характеристики трансфера                 : BT.709
Коэффициенты матрицы                     : BT.709

Аудио
Идентификатор                            : 2
Формат                                   : AC-3
Формат/Информация                        : Audio Coding 3
Расширение режима                        : CM (complete main)
Параметр Endianness формата              : Big
Идентификатор кодека                     : A_AC3
Продолжительность                        : 46 м. 1 с.
Вид битрейта                             : Постоянный
Битрейт                                  : 192 Кбит/сек
Каналы                                   : 2 канала
Расположение каналов                     : Front: L R
Частота                                  : 48,0 КГц
Частота кадров                           : 31,250 кадров/сек (1536 spf)
Битовая глубина                          : 16 бит
Метод сжатия                             : С потерями
Размер потока                            : 63,2 Мбайт (9%)
Default                                  : Да
Forced                                   : Нет

Общее
Уникальный идентификатор                 : 179263126683024434649655174166592808318 (0x86DCD28634EB26E9BE6A9DDD418AE57E)
Полное имя                               : D:25-j chas.HDTVRip.(AVC).GeneralFilm�2.25-j chas.HDTVRip.(AVC).GeneralFilm.mkv
Формат                                   : Matroska
Версия формата                           : Version 2
Размер файла                             : 726 Мбайт
Продолжительность                        : 46 м. 17 с.
Общий поток                              : 2193 Кбит/сек
Дата кодирования                         : UTC 2019-07-01 17:25:30
Программа кодирования                    : mkvmerge v7.8.0 ('River Man') 32bit built on Apr  3 2015 12:11:22
Библиотека кодирования                   : libebml v1.3.1 + libmatroska v1.4.2

Видео
Идентификатор                            : 1
Формат                                   : AVC
Формат/Информация                        : Advanced Video Codec
Профиль формата                          : High@L4.1
Параметр CABAC формата                   : Да
Параметр ReFrames формата                : 9 кадров
Идентификатор кодека                     : V_MPEG4/ISO/AVC
Продолжительность                        : 46 м. 17 с.
Битрейт                                  : 2000 Кбит/сек
Ширина                                   : 1024 пикселя
Высота                                   : 576 пикселей
Соотношение сторон                       : 16:9
Режим частоты кадров                     : Постоянный
Частота кадров                           : 25,000 кадров/сек
Цветовое пространство                    : YUV
Субдискретизация насыщенности            : 4:2:0
Битовая глубина                          : 8 бит
Тип развёртки                            : Прогрессивная
Бит/(Пиксели*Кадры)                      : 0.136
Размер потока                            : 648 Мбайт (89%)
Библиотека кодирования                   : x264 core 146 r2538 121396c
Настройки программы                      : cabac=1 / ref=9 / deblock=1:-2:-1 / analyse=0x3:0x113 / me=umh / subme=9 / psy=1 / psy_rd=1.00:0.15 / mixed_ref=1 / me_range=32 / chroma_me=1 / trellis=2 / 8x8dct=1 / cqm=0 / deadzone=21,11 / fast_pskip=0 / chroma_qp_offset=-3 / threads=18 / lookahead_threads=3 / sliced_threads=0 / nr=0 / decimate=1 / interlaced=0 / bluray_compat=0 / constrained_intra=0 / bframes=9 / b_pyramid=2 / b_adapt=2 / b_bias=0 / direct=3 / weightb=1 / open_gop=0 / weightp=2 / keyint=250 / keyint_min=25 / scenecut=40 / intra_refresh=0 / rc_lookahead=40 / rc=2pass / mbtree=0 / bitrate=2000 / ratetol=1.0 / qcomp=0.60 / qpmin=0 / qpmax=69 / qpstep=4 / cplxblur=20.0 / qblur=0.5 / vbv_maxrate=14000 / vbv_bufsize=14000 / nal_hrd=none / filler=0 / ip_ratio=1.40 / pb_ratio=1.30 / aq=2:1.00
Default                                  : Да
Forced                                   : Нет
Цветовой диапазон                        : Limited
Основные цвета                           : BT.709
Характеристики трансфера                 : BT.709
Коэффициенты матрицы                     : BT.709

Аудио
Идентификатор                            : 2
Формат                                   : AC-3
Формат/Информация                        : Audio Coding 3
Расширение режима                        : CM (complete main)
Параметр Endianness формата              : Big
Идентификатор кодека                     : A_AC3
Продолжительность                        : 46 м. 17 с.
Вид битрейта                             : Постоянный
Битрейт                                  : 192 Кбит/сек
Каналы                                   : 2 канала
Расположение каналов                     : Front: L R
Частота                                  : 48,0 КГц
Частота кадров                           : 31,250 кадров/сек (1536 spf)
Битовая глубина                          : 16 бит
Метод сжатия                             : С потерями
Размер потока                            : 63,6 Мбайт (9%)
Default                                  : Да
Forced                                   : Нет




Скриншоты:
[+] Всего файлов в раздаче - 12:
01.25-j chas.HDTVRip.(AVC).GeneralFilm.mkv722.24 MB
02.25-j chas.HDTVRip.(AVC).GeneralFilm.mkv726.32 MB
03.25-j chas.HDTVRip.(AVC).GeneralFilm.mkv734.68 MB
04.25-j chas.HDTVRip.(AVC).GeneralFilm.mkv721.34 MB
05.25-j chas.HDTVRip.(AVC).GeneralFilm.mkv721.76 MB
06.25-j chas.HDTVRip.(AVC).GeneralFilm.mkv728.38 MB
07.25-j chas.HDTVRip.(AVC).GeneralFilm.mkv728.05 MB
08.25-j chas.HDTVRip.(AVC).GeneralFilm.mkv726.31 MB
09.25-j chas.HDTVRip.(AVC).GeneralFilm.mkv723.50 MB
10.25-j chas.HDTVRip.(AVC).GeneralFilm.mkv741.82 MB
11.25-j chas.HDTVRip.(AVC).GeneralFilm.mkv722.80 MB
12.25-j chas.HDTVRip.(AVC).GeneralFilm.mkv723.69 MB

Показать еще раздачи по запросу hdtvrip:
Вчера U Крылья империи [01-10 из 12] (2017) HDTVRip от GeneralFilm 6.52 GB ↑ 49 ↓ 63
2019-07-17 U Крылья империи [01-08 из 12] (2017) HDTVRip 720p от GeneralFilm 10.84 GB ↑ 36 ↓ 74
2019-07-17 U Крылья империи [01-08 из 12] (2017) HDTVRip от GeneralFilm 5.23 GB ↑ 60 ↓ 67
2019-07-16 U Крылья империи [01-06 из 12] (2017) HDTVRip 720p от GeneralFilm 8.18 GB ↑ 60 ↓ 85
2019-07-16 U Крылья империи [01-06 из 12] (2017) HDTVRip от GeneralFilm 3.95 GB ↑ 27 ↓ 31
2019-07-15 U Если бы да кабы (2016) HDTVRip 720p от ExKinoRay 2.85 GB ↑ 94 ↓ 34
2019-07-15 U Если бы да кабы (2016) HDTVRip от GeneralFilm 1.45 GB ↑ 40 ↓ 17

Отзывы
Зарегистрируйтесь чтобы добавить комментарий.
Обратная связь
Copyleft ©