↑↓Torrent.by
Поиск
Логин: Регистрация
Пароль: Восстановить пароль
Загрузка...

Пятнадцать минут войны / 15 Minutes of War / L'Intervention (2019) BDRip 1080p | iTunes

Скачать pyatnadcat-minut-voyny-15-minutes-of-war-l-intervention-2019-bdrip-1080p-itunes.torrent
U Магнитная ссылка Размер: 8.62 GB Раздают: 124 Качают: 150 Добавлен: 2019-07-12 06:56:05
Пятнадцать минут войны / 15 Minutes of War / L'Intervention (2019) BDRip 1080p | iTunes

Название: Пятнадцать минут войны
Оригинальное название: L'Intervention
Год выхода: 2019
Жанр: Боевик, драма, военный, история
Режиссер: Фред Гривуа
В ролях: Альбан Ленуар, Ольга Куриленко, Себастьян Лаланн, Давид Муржиа, Микаэль Абитбуль, Гийом Лаббе, Бен Кура, Венсан Перес, Жозиан Баласко, Кевин Лэйн

О фильме:
1976 год. Сомалийские мятежники угоняют школьный автобус, пассажиры которого — 21 французский ученик и американский учитель, и увозят его к нейтральной зоне на границе между французской колонией и Сомали. Французский капитан Андре Жерваль получает задание возглавить команду снайперов для оперативного спасения заложников. Когда переговоры терпят неудачу, Жерваль и его ребята становятся единственными, кто может спасти их жизнь.

 
Страна: Франция, Бельгия
Студия: SND Groupe M6, Versus Production, C8 Films
Продолжительность: 01:38:24
Перевод: Профессиональный многоголосый закадровый (iTunes)

Файл
Качество: BDRip 1080p | iTunes
Видео: AVC/H.264, 1920x806, 10,6 Мbps, 24 fps
Звук:
Аудио 1: AC3, 6 ch, 384 Kbps - Русский
Аудио 2: DTS, 6ch, 1509 Kbps - французский
Субтитры: французские


[+] Mediainfo
Общее
Уникальный идентификатор                 : 79189917355561689522547082116278427335 (0x3B936C5E3B5527E341D849C58B469EC7)
Полное имя                               : L.Intervention_2019_BDRip_1080p.W.mkv
Формат                                   : Matroska
Версия формата                           : Version 4
Размер файла                             : 8,62 Гбайт
Продолжительность                        : 1 ч. 38 м.
Общий поток                              : 12,5 Мбит/сек
Название фильма                          : L.Intervention_2019_BDRip_1080p
Дата кодирования                         : UTC 2019-07-11 19:49:03
Программа кодирования                    : mkvmerge v23.0.0 ('The Bride Said No') 64-bit
Библиотека кодирования                   : libebml v1.3.6 + libmatroska v1.4.9

Видео
Идентификатор                            : 1
Формат                                   : AVC
Формат/Информация                        : Advanced Video Codec
Профиль формата                          : High@L4.1
Настройки формата                        : CABAC / 5 Ref Frames
Параметр CABAC формата                   : Да
Параметр RefFrames формата               : 5 кадров
Идентификатор кодека                     : V_MPEG4/ISO/AVC
Продолжительность                        : 1 ч. 38 м.
Битрейт                                  : 10,6 Мбит/сек
Ширина                                   : 1920 пикселей
Высота                                   : 806 пикселей
Соотношение сторон                       : 2,40:1
Режим частоты кадров                     : Постоянный
Частота кадров                           : 24,000 кадра/сек
Цветовое пространство                    : YUV
Субдискретизация насыщенности            : 4:2:0
Битовая глубина                          : 8 бит
Тип развёртки                            : Прогрессивная
Бит/(Пиксели*Кадры)                      : 0.287
Размер потока                            : 7,31 Гбайт (85%)
Заголовок                                : rip by -=walledol=-
Библиотека кодирования                   : x264 core 157 r2945 72db437
Настройки программы                      : cabac=1 / ref=5 / deblock=1:-3:-3 / analyse=0x3:0x133 / me=umh / subme=11 / psy=1 / psy_rd=1.05:0.10 / mixed_ref=1 / me_range=32 / chroma_me=1 / trellis=2 / 8x8dct=1 / cqm=0 / deadzone=21,11 / fast_pskip=0 / chroma_qp_offset=-3 / threads=12 / lookahead_threads=2 / sliced_threads=0 / nr=0 / decimate=1 / interlaced=0 / bluray_compat=0 / constrained_intra=0 / bframes=9 / b_pyramid=2 / b_adapt=2 / b_bias=0 / direct=3 / weightb=1 / open_gop=0 / weightp=2 / keyint=240 / keyint_min=24 / scenecut=40 / intra_refresh=0 / rc_lookahead=60 / rc=2pass / mbtree=1 / bitrate=10650 / ratetol=1.0 / qcomp=0.60 / qpmin=0 / qpmax=69 / qpstep=4 / cplxblur=20.0 / qblur=0.5 / vbv_maxrate=30000 / vbv_bufsize=33000 / nal_hrd=none / filler=0 / ip_ratio=1.40 / aq=3:0.80
Язык                                     : French
Default                                  : Да
Forced                                   : Нет

Аудио #1
Идентификатор                            : 2
Формат                                   : AC-3
Формат/Информация                        : Audio Coding 3
Коммерческое название                    : Dolby Digital
Идентификатор кодека                     : A_AC3
Продолжительность                        : 1 ч. 38 м.
Вид битрейта                             : Постоянный
Битрейт                                  : 384 Кбит/сек
Каналы                                   : 6 каналов
ChannelLayout                            : L R C LFE Ls Rs
Частота                                  : 48,0 КГц
Частота кадров                           : 31,250 кадров/сек (1536 SPF)
Битовая глубина                          : 16 бит
Метод сжатия                             : С потерями
Размер потока                            : 270 Мбайт (3%)
Заголовок                                : MVO (iTunes)
Язык                                     : Russian
ServiceKind                              : Complete Main
Default                                  : Да
Forced                                   : Нет

Аудио #2
Идентификатор                            : 3
Формат                                   : DTS
Формат/Информация                        : Digital Theater Systems
Идентификатор кодека                     : A_DTS
Продолжительность                        : 1 ч. 38 м.
Вид битрейта                             : Постоянный
Битрейт                                  : 1509 Кбит/сек
Каналы                                   : 6 каналов
ChannelLayout                            : C L R Ls Rs LFE
Частота                                  : 48,0 КГц
Частота кадров                           : 93,750 кадра/сек (512 SPF)
Битовая глубина                          : 24 бит
Метод сжатия                             : С потерями
Размер потока                            : 1,04 Гбайт (12%)
Язык                                     : French
Default                                  : Нет
Forced                                   : Нет

Текст #1
Идентификатор                            : 4
Формат                                   : UTF-8
Идентификатор кодека                     : S_TEXT/UTF8
Идентификатор кодека/Информация          : UTF-8 Plain Text
Продолжительность                        : 1 ч. 14 м.
Битрейт                                  : 7 бит/сек
ElementCount                             : 136
Размер потока                            : 4,28 Кбайт (0%)
Заголовок                                : Forced
Язык                                     : French
Default                                  : Нет
Forced                                   : Нет

Текст #2
Идентификатор                            : 5
Формат                                   : UTF-8
Идентификатор кодека                     : S_TEXT/UTF8
Идентификатор кодека/Информация          : UTF-8 Plain Text
Продолжительность                        : 1 ч. 38 м.
Битрейт                                  : 38 бит/сек
ElementCount                             : 1092
Размер потока                            : 28,1 Кбайт (0%)
Язык                                     : French
Default                                  : Нет
Forced                                   : Нет

Меню
00:00:00.000                             : fr:(01)00:00:00:000
00:09:35.958                             : fr:(02)00:09:35:958
00:15:56.875                             : fr:(03)00:15:56:875
00:23:28.833                             : fr:(04)00:23:28:833
00:33:02.916                             : fr:(05)00:33:02:916
00:39:47.833                             : fr:(06)00:39:47:833
00:48:04.000                             : fr:(07)00:48:04:000
00:55:23.958                             : fr:(08)00:55:23:958
01:04:22.416                             : fr:(09)01:04:22:416
01:12:05.916                             : fr:(10)01:12:05:916
01:19:38.791                             : fr:(11)01:19:38:791
01:28:59.250                             : fr:(12)01:28:59:250



Скриншоты:
[+] Всего файлов в раздаче - 1:
L.Intervention_2019_BDRip_1080p.W.mkv8.62 GB

Показать еще раздачи по запросу пятнадцать:
2019-07-14 U Пятнадцать минут войны / 15 Minutes of War / L'Intervention (2019) BDRip-AVC от OlLanDGroup | iTunes 1.50 GB ↑ 116 ↓ 35
2019-07-13 U Пятнадцать минут войны / L'Intervention (2019) BDRip 720p от HELLYWOOD | iTunes 4.33 GB ↑ 85 ↓ 49
2019-07-12 U Пятнадцать минут войны / 15 Minutes of War / L'Intervention (2019) HDRip-AVC от ExKinoRay | iTunes 1.40 GB ↑ 70 ↓ 34
2019-07-12 U Пятнадцать минут войны / 15 Minutes of War / L'Intervention (2019) BDRemux 1080p | iTunes 23.14 GB ↑ 32 ↓ 20
2019-07-11 U Пятнадцать минут войны / 15 Minutes of War / L'Intervention (2019) BDRip от MegaPeer | iTunes 1.42 GB ↑ 214 ↓ 153
2019-06-24 U Пятнадцать минут войны / 15 Minutes of War / L'Intervention (2019) HDRip-AVC от ExKinoRay | L2 1.45 GB ↑ 63 ↓ 12
2019-06-24 U Пятнадцать минут войны / 15 Minutes of War / L'Intervention (2019) BDRip от MegaPeer | L2 1.46 GB ↑ 69 ↓ 16

Отзывы
Зарегистрируйтесь чтобы добавить комментарий.
Обратная связь
Copyleft ©