↑↓Torrent.by
Поиск
Логин: Регистрация
Пароль: Восстановить пароль
Загрузка...

Алита: Боевой ангел / Alita: Battle Angel (2019) WEB-DL 1080p | Open Matte | D, P | iTunes

Скачать alita-boevoy-angel-battle-2019-web-dl-1080p-open-matte-d-p-itunes.torrent
U Магнитная ссылка Размер: 7.51 GB Раздают: 101 Качают: 90 Добавлен: 2019-07-12 06:56:18
Алита: Боевой ангел / Alita: Battle Angel (2019) WEB-DL 1080p | Open Matte | D, P | iTunes

Название: Алита: Боевой ангел
Оригинальное название: Alita: Battle Angel
Год выхода: 2019
Жанр: Фантастика, боевик, триллер, приключения
Режиссер: Роберт Родригес
В ролях: Роза Салазар, Кристоф Вальц, Дженнифер Коннелли, Махершала Али, Эд Скрейн, Джеки Эрл Хейли, Кин Джонсон, Хорхе Лендеборг мл., Лана Кондор, Идара Виктор

О фильме:
Действие фильма происходит через 300 лет после Великой войны в XXVI веке. Доктор Идо находит останки женщины-киборга. После починки киборг ничего не помнит, но обнаруживает, что в состоянии пользоваться боевыми приемами киборгов. Начинаются поиски утерянных воспоминаний.

 
Страна: США
Студия: Twentieth Century Fox, Lightstorm Entertainment, Troublemaker Studios
Продолжительность: 02:02:04
Перевод: Дублированный (iTunes), Профессиональный многоголосый x2

Файл
Качество: WEB-DL 1080p
Видео: AVC/H.264, 1920x1080, 7654 Кbps, 23,976 fps
Звук:
Аудио 1: AC3, 6 ch, 384 Kbps - Русский (DUB)
Аудио 2: AC3, 2 ch, 192 Kbps - Русский (MVO HDRezka Studio)
Аудио 3: AC3, 2 ch, 192 Kbps - Русский (MVO CВ Студия)
Аудио 4: AC3, 6 ch, 384 Kbps - Английский
Субтитры: Русские (Forced, Full), Английские (Full, SDH)


[+] Mediainfo
Общее
Уникальный идентификатор                 : 135811489588213520661316643930851285118 (0x662C5769DB0599AE400375F3B9E0987E)
Полное имя                               : D:FilmAlita_Battle Angel_2019_DUB_WEB-DL_1080p.mkv
Формат                                   : Matroska
Версия формата                           : Version 4
Размер файла                             : 7,51 Гбайт
Продолжительность                        : 2 ч. 2 м.
Общий поток                              : 8809 Кбит/сек
Название фильма                          : EVO
Дата кодирования                         : UTC 2019-07-11 21:42:00
Программа кодирования                    : mkvmerge v23.0.0 ('The Bride Said No') 64-bit
Библиотека кодирования                   : libebml v1.3.6 + libmatroska v1.4.9
Обложка                                  : Yes
Attachments                              : cover.png

Видео
Идентификатор                            : 1
Формат                                   : AVC
Формат/Информация                        : Advanced Video Codec
Профиль формата                          : High@L4
Настройки формата                        : CABAC / 2 Ref Frames
Параметр CABAC формата                   : Да
Параметр RefFrames формата               : 2 кадра
Идентификатор кодека                     : V_MPEG4/ISO/AVC
Продолжительность                        : 2 ч. 2 м.
Битрейт                                  : 7654 Кбит/сек
Ширина                                   : 1920 пикселей
Высота                                   : 1080 пикселей
Соотношение сторон                       : 16:9
Режим частоты кадров                     : Постоянный
Частота кадров                           : 23,976 (24000/1001) кадра/сек
Цветовое пространство                    : YUV
Субдискретизация насыщенности            : 4:2:0
Битовая глубина                          : 8 бит
Тип развёртки                            : Прогрессивная
Бит/(Пиксели*Кадры)                      : 0.154
Размер потока                            : 6,53 Гбайт (87%)
Язык                                     : English
Default                                  : Да
Forced                                   : Нет
Цветовой диапазон                        : Limited
Основные цвета                           : BT.709
Характеристики трансфера                 : BT.709
Коэффициенты матрицы                     : BT.709

Аудио #1
Идентификатор                            : 2
Формат                                   : AC-3
Формат/Информация                        : Audio Coding 3
Коммерческое название                    : Dolby Digital
Идентификатор кодека                     : A_AC3
Продолжительность                        : 2 ч. 1 м.
Вид битрейта                             : Постоянный
Битрейт                                  : 384 Кбит/сек
Каналы                                   : 6 каналов
ChannelLayout                            : L R C LFE Ls Rs
Частота                                  : 48,0 КГц
Частота кадров                           : 31,250 кадров/сек (1536 SPF)
Битовая глубина                          : 16 бит
Метод сжатия                             : С потерями
Размер потока                            : 335 Мбайт (4%)
Заголовок                                : DUB (iTunes)
Язык                                     : Russian
ServiceKind                              : Complete Main
Default                                  : Да
Forced                                   : Нет

Аудио #2
Идентификатор                            : 3
Формат                                   : AC-3
Формат/Информация                        : Audio Coding 3
Коммерческое название                    : Dolby Digital
Идентификатор кодека                     : A_AC3
Продолжительность                        : 2 ч. 1 м.
Вид битрейта                             : Постоянный
Битрейт                                  : 192 Кбит/сек
Каналы                                   : 2 канала
ChannelLayout                            : L R
Частота                                  : 48,0 КГц
Частота кадров                           : 31,250 кадров/сек (1536 SPF)
Битовая глубина                          : 16 бит
Метод сжатия                             : С потерями
Размер потока                            : 167 Мбайт (2%)
Заголовок                                : MVO | HDRezka Studio
Язык                                     : Russian
ServiceKind                              : Complete Main
Default                                  : Нет
Forced                                   : Нет

Аудио #3
Идентификатор                            : 4
Формат                                   : AC-3
Формат/Информация                        : Audio Coding 3
Коммерческое название                    : Dolby Digital
Идентификатор кодека                     : A_AC3
Продолжительность                        : 2 ч. 1 м.
Вид битрейта                             : Постоянный
Битрейт                                  : 192 Кбит/сек
Каналы                                   : 2 канала
ChannelLayout                            : L R
Частота                                  : 48,0 КГц
Частота кадров                           : 31,250 кадров/сек (1536 SPF)
Битовая глубина                          : 16 бит
Метод сжатия                             : С потерями
Размер потока                            : 167 Мбайт (2%)
Заголовок                                : MVO - СВ Студия
Язык                                     : Russian
ServiceKind                              : Complete Main
Default                                  : Нет
Forced                                   : Нет

Аудио #4
Идентификатор                            : 5
Формат                                   : AC-3
Формат/Информация                        : Audio Coding 3
Коммерческое название                    : Dolby Digital
Идентификатор кодека                     : A_AC3
Продолжительность                        : 2 ч. 1 м.
Вид битрейта                             : Постоянный
Битрейт                                  : 384 Кбит/сек
Каналы                                   : 6 каналов
ChannelLayout                            : L R C LFE Ls Rs
Частота                                  : 48,0 КГц
Частота кадров                           : 31,250 кадров/сек (1536 SPF)
Битовая глубина                          : 16 бит
Метод сжатия                             : С потерями
Размер потока                            : 335 Мбайт (4%)
Язык                                     : English
ServiceKind                              : Complete Main
Default                                  : Нет
Forced                                   : Нет

Текст #1
Идентификатор                            : 6
Формат                                   : UTF-8
Идентификатор кодека                     : S_TEXT/UTF8
Идентификатор кодека/Информация          : UTF-8 Plain Text
Продолжительность                        : 25 м. 5 с.
Битрейт                                  : 0 бит/сек
ElementCount                             : 2
Размер потока                            : 95,0 байт (0%)
Заголовок                                : Forced
Язык                                     : Russian
Default                                  : Да
Forced                                   : Нет

Текст #2
Идентификатор                            : 7
Формат                                   : UTF-8
Идентификатор кодека                     : S_TEXT/UTF8
Идентификатор кодека/Информация          : UTF-8 Plain Text
Продолжительность                        : 1 ч. 56 м.
Битрейт                                  : 64 бит/сек
ElementCount                             : 1318
Размер потока                            : 55,4 Кбайт (0%)
Заголовок                                : Full (Focs)
Язык                                     : Russian
Default                                  : Нет
Forced                                   : Нет

Текст #3
Идентификатор                            : 8
Формат                                   : UTF-8
Идентификатор кодека                     : S_TEXT/UTF8
Идентификатор кодека/Информация          : UTF-8 Plain Text
Продолжительность                        : 1 ч. 55 м.
Битрейт                                  : 41 бит/сек
ElementCount                             : 1347
Размер потока                            : 34,9 Кбайт (0%)
Заголовок                                : Full
Язык                                     : English
Default                                  : Нет
Forced                                   : Нет

Текст #4
Идентификатор                            : 9
Формат                                   : UTF-8
Идентификатор кодека                     : S_TEXT/UTF8
Идентификатор кодека/Информация          : UTF-8 Plain Text
Продолжительность                        : 1 ч. 55 м.
Битрейт                                  : 46 бит/сек
ElementCount                             : 1588
Размер потока                            : 39,4 Кбайт (0%)
Заголовок                                : SDH
Язык                                     : English
Default                                  : Нет
Forced                                   : Нет

Меню
00:00:00.000                             : en:Scene 1
00:00:27.000                             : en:Scene 2
00:05:23.000                             : en:Scene 3
00:13:08.000                             : en:Scene 4
00:18:06.000                             : en:Scene 5
00:23:00.000                             : en:Scene 6
00:25:40.000                             : en:Scene 7
00:33:30.000                             : en:Scene 8
00:36:34.000                             : en:Scene 9
00:37:47.000                             : en:Scene 10
00:38:32.000                             : en:Scene 11
00:41:07.000                             : en:Scene 12
00:45:59.000                             : en:Scene 13
00:48:32.000                             : en:Scene 14
00:52:58.000                             : en:Scene 15
00:55:16.000                             : en:Scene 16
01:02:58.000                             : en:Scene 17
01:10:24.000                             : en:Scene 18
01:16:36.000                             : en:Scene 19
01:18:53.000                             : en:Scene 20
01:22:50.000                             : en:Scene 21
01:24:57.000                             : en:Scene 22
01:28:26.000                             : en:Scene 23
01:36:10.000                             : en:Scene 24
01:38:42.000                             : en:Scene 25
01:43:29.000                             : en:Scene 26
01:44:46.000                             : en:Scene 27
01:51:45.000                             : en:Scene 28
01:54:31.000                             : en:Scene 29
01:56:53.000                             : en:Scene 30
01:56:56.000                             : en:Scene 31



[+] Мнение о фильме (спойлер)
Концовка тупая. Непонятно зачем она решила играть в мячик, когда можно и так забраться наверх по канату. Тело же у нее нешуточное. Да и паренек тот дебил, тело механическое - когда вниз полетел мог бы руки/ноги выставить как кошка, все равно у него от настоящего тела одна башка осталась, а конечности можно сменить. Непонятно зачем война была, почему марсиане хотели уничтожить Залем и прочие города. И кто там живет не показали, такое впечатление что наверху вообще 1 доктор проживает. Ничего не объяснили, ничего не раскрыли, где ее боевые подружки, жива ли цивилизация на Марсе, в общем картина еще бредовее чем Хищные города или Первому приготовиться.



[+] Скрытый текст
Video
ID : 1
Format : AVC
Format/Info : Advanced Video Codec
Format profile : High@L4
Format settings : CABAC / 4 Ref Frames
Format settings, CABAC : Yes
Format settings, ReFrames : 4 frames
Codec ID : V_MPEG4/ISO/AVC
Duration : 2 h 1 min
Bit rate : 1 899 kb/s
Nominal bit rate : 3 072 kb/s
Width : 1 920 pixels
Height : 1 080 pixels
Display aspect ratio : 16:9
Frame rate mode : Constant
Frame rate : 23.976 (24000/1001) FPS
Color space : YUV
Chroma subsampling : 4:2:0
Bit depth : 8 bits
Scan type : Progressive
Bits/(Pixel*Frame) : 0.038
Stream size : 1.62 GiB (88%)
Title : Alita.Battle.Angel.2019.1080p.WEBRip.AAC2.0.x264-BADQUALITY
Writing library : x264 core 148
Encoding settings : cabac=1 / ref=3 / deblock=1:0:0 / analyse=0x3:0x113 / me=hex / subme=7 / psy=1 / psy_rd=1.00:0.00 / mixed_ref=1 / me_range=16 / chroma_me=1 / trellis=1 / 8x8dct=1 / cqm=0 / deadzone=21,11 / fast_pskip=1 / chroma_qp_offset=-2 / threads=18 / lookahead_threads=3 / sliced_threads=0 / nr=0 / decimate=1 / interlaced=0 / bluray_compat=0 / constrained_intra=0 / bframes=3 / b_pyramid=2 / b_adapt=1 / b_bias=0 / direct=1 / weightb=1 / open_gop=0 / weightp=2 / keyint=75 / keyint_min=38 / scenecut=0 / intra_refresh=0 / rc_lookahead=40 / rc=cbr / mbtree=1 / bitrate=3072 / ratetol=1.0 / qcomp=0.60 / qpmin=0 / qpmax=69 / qpstep=4 / vbv_maxrate=3072 / vbv_bufsize=640 / nal_hrd=none / filler=0 / ip_ratio=1.40 / aq=1:1.00
Language : English
Default : Yes
Forced : No



Скриншоты:
[+] Всего файлов в раздаче - 1:
Alita_Battle Angel_2019_DUB_WEB-DL_1080p.mkv7.51 GB

Показать еще раздачи по запросу алита:
Вчера U Алита: Боевой ангел / Alita: Battle Angel (2019) BDRip от Twister & ExKinoRay | Локализованная версия | Лицензия 2.18 GB ↑ 64 ↓ 26
Вчера U Алита: Боевой ангел / Alita: Battle Angel (2019) Blu-Ray EUR 1080p | 3D-Video | Лицензия 44.69 GB ↑ 36 ↓ 10
Вчера U Алита: Боевой ангел / Alita: Battle Angel (2019) BDRip-AVC от HELLYWOOD | Локализованная версия | Лицензия 2.91 GB ↑ 75 ↓ 15
2019-07-17 U Алита: Боевой ангел / Alita: Battle Angel (2019) BDRip-AVC от HELLYWOOD | Локализованная версия | Лицензия 1.46 GB ↑ 57 ↓ 28
2019-07-16 U Алита: Боевой ангел / Alita: Battle Angel (2019) UHD BDRemux 2160p от ExKinoRay | 4K | HDR | D, P | Локализованная версия | Лицензия 41.88 GB ↑ 48 ↓ 119
2019-07-16 U Алита: Боевой ангел / Alita: Battle Angel (2019) BDRip-HEVC 1080p от HANNIBAL | Лицензия 8.32 GB ↑ 149 ↓ 95
2019-07-16 U Алита: Боевой ангел / Alita: Battle Angel (2019) BDRip 1080p от Ash61 | 3D-Video | halfOU | Лицензия 12.55 GB ↑ 193 ↓ 201

Отзывы
Зарегистрируйтесь чтобы добавить комментарий.
Обратная связь
Copyleft ©