↑↓Torrent.by
Поиск
Логин: Регистрация
Пароль: Восстановить пароль
Загрузка...

В упор / Point Blank (2019) WEB-DLRip | D

Скачать v-upor-point-blank-2019-web-dlrip-d.torrent
U Магнитная ссылка Размер: 1.45 GB Раздают: 438 Качают: 285 Добавлен: 2019-07-12 14:54:06
В упор / Point Blank (2019) WEB-DLRip | D

Название: В упор
Оригинальное название: Point Blank
Год выхода: 2019
Жанр: Боевик, триллер, криминал
Страна: США
Перевод: Дублированный | Невафильм по заказу Netflix
Продолжительность: 01:26:38
Режиссер: Джо Линч
В ролях: Энтони Маки, Фрэнк Грилло, Марша Гей Харден, Кристиан Кук, Тейона Паррис, Борис МакГайвер, Карли Тамборски, Мин Ван, Маркис Мур, Лиа Хаттон Бисмор и др.

О фильме: Неизвестные проникают в дом врача скорой помощи Пола и похищают его беременную жену. Чтобы ее вернуть, Полу нужно освободить преступника, попавшего в его больницу

Файл
Формат: AVI
Качество: WEB-DLRip
Видео: Xvid 73, 720x304, ~1942 kbps, 23,976 fps
Звук: русский, AC3, 5.1 ch, 48 kHz, 448 kbps
Субтитры: русские (форс. вшитые)

Рип и релиз от:


[+] MI
Общее
Полное имя                               : F:TorrentPointBlankWEBDLRip.avi
Формат                                   : AVI
Формат/Информация                        : Audio Video Interleave
Профиль формата                          : OpenDML
Размер файла                             : 1,45 Гбайт
Продолжительность                        : 1 ч. 26 м.
Общий поток                              : 2402 Кбит/сек
Программа кодирования                    : XviD4PSP 6.0 / 54.27.101

Видео
Идентификатор                            : 0
Формат                                   : MPEG-4 Visual
Профиль формата                          : Advanced Simple@L5
Настройки формата                        : BVOP1 / Custom Matrix
Параметр BVOP формата                    : 1
Параметр QPel формата                    : Нет
Параметр GMC формата                     : Без точки перехода
Параметр матрицы формата                 : Выборочная
Идентификатор кодека                     : XVID
Идентификатор кодека/Подсказка           : XviD
Продолжительность                        : 1 ч. 26 м.
Битрейт                                  : 1942 Кбит/сек
Ширина                                   : 720 пикселей
Высота                                   : 304 пикселя
Соотношение сторон                       : 2,35:1
Частота кадров                           : 23,976 (23976/1000) кадра/сек
Цветовое пространство                    : YUV
Субдискретизация насыщенности            : 4:2:0
Битовая глубина                          : 8 бит
Тип развёртки                            : Прогрессивная
Метод сжатия                             : С потерями
Бит/(Пиксели*Кадры)                      : 0.370
Размер потока                            : 1,18 Гбайт (81%)
Библиотека кодирования                   : XviD 73

Аудио
Идентификатор                            : 1
Формат                                   : AC-3
Формат/Информация                        : Audio Coding 3
Параметр Endianness формата              : Big
Идентификатор кодека                     : 2000
Продолжительность                        : 1 ч. 26 м.
Вид битрейта                             : Постоянный
Битрейт                                  : 448 Кбит/сек
Каналы                                   : 6 каналов
Расположение каналов                     : Front: L C R, Side: L R, LFE
Частота                                  : 48,0 КГц
Частота кадров                           : 31,250 кадров/сек (1536 SPF)
Битовая глубина                          : 16 бит
Метод сжатия                             : С потерями
Размер потока                            : 278 Мбайт (19%)
Выравнивание                             : Соединение по промежуткам
Продолжительность промежутка             : 32  мс. (0,77 видеокадр)




Скриншоты:
[+] Всего файлов в раздаче - 1:
PointBlankWEBDLRip.avi1.45 GB

Похожие раздачи по запросу - упор:
2019-07-15 U В упор / Point Blank (2019) WEB-DLRip от Portablius | D 745.11 MB ↑ 28 ↓ 12
2019-07-14 U В упор / Point Blank (2019) WEB-DLRip от Scarabey | D 1.44 GB ↑ 22 ↓ 13
2019-07-13 U В упор / Point Blank (2019) WEB-DLRip-AVC от New-Team | D 744.12 MB ↑ 74 ↓ 32
2019-07-13 U В упор / Point Blank (2019) WEB-DLRip-AVC от New-Team | D 2.13 GB ↑ 73 ↓ 31
2019-07-13 U В упор / Point Blank (2019) WEB-DLRip-AVC от New-Team | D 1.36 GB ↑ 81 ↓ 25
2019-07-12 U В упор / Point Blank (2019) WEB-DL 1080p | D 3.13 GB ↑ 432 ↓ 304

Отзывы
Зарегистрируйтесь чтобы добавить комментарий.
Обратная связь
Copyleft ©