↑↓Torrent.by
Поиск
Логин: Регистрация
Пароль: Восстановить пароль
Загрузка...

Как я стал… (2018) WEB-DLRip | iTunes

Скачать kak-ya-stal-2018-web-dlrip-itunes.torrent
U Магнитная ссылка Размер: 1.46 GB Раздают: 275 Качают: 63 Добавлен: 2019-07-12 14:54:09
Как я стал… (2018) WEB-DLRip | iTunes

Как я стал…

Страна: Россия
Производство: Студия «КиноПРОБА»
Год выпуска: 2018
Жанр:  драма
Продолжительность: 01:41:04

Режиссер: Павел Мирзоев
В ролях: Павел Табаков, Ольга Лерман, Роза Хаируллина, Сергей Пускепалис, Софья Синицына, Денис Власенко, Анастасия Щеглова, Полина Степанова

Описание: Становление личности. Взросление. Первая любовь. Первое предательство. Первое столкновение с реальной жизнью. Москва. Наши дни...

Перевод: не требуется (оригинал) | iTunes
Субтитры: нет

Качество: WEB-DLRip
Формат: AVI
Видео кодек: XviD
Аудио кодек: АС3
Видео: 704x384 (1.85:1), 24.000 fps, XviD build 73 ~1 862 kbps avg
Аудио: 48.0 kHz, AC3 Dolby Digital, 2/0 (L,R) ch, ~192 kbps

Дата премьеры (мир): 14 ноября 2018
Дата премьеры (РФ): 20 апреля 2019

Релиз от: порошков


[+] Media Info
General
Формат                                   : AVI
Формат/Информация                        : Audio Video Interleave
Размер файла                             : 1,46 Гбайт
Продолжительность                        : 1 ч. 41 м.
Общий поток                              : 2063 Кбит/сек
Название фильма                          : Как я стал…_2018_WEB-DLRip
Программа кодирования                    : VirtualDubMod 1.5.10.3 | (build 2550/release)
Авторское право                          : порошков

Видео
Идентификатор                            : 0
Формат                                   : MPEG-4 Visual
Профиль формата                          : Advanced Simple@L5
Настройки формата                        : BVOP1 / Custom Matrix
Параметр BVOP формата                    : 1
Параметр QPel формата                    : Нет
Параметр GMC формата                     : Без точки перехода
Параметр матрицы формата                 : Выборочная
Идентификатор кодека                     : XVID
Идентификатор кодека/Подсказка           : XviD
Продолжительность                        : 1 ч. 41 м.
Битрейт                                  : 1862 Кбит/сек
Ширина                                   : 704 пикселя
Высота                                   : 384 пикселя
Соотношение сторон                       : 1,85:1
Частота кадров                           : 24,000 кадра/сек
Цветовое пространство                    : YUV
Субдискретизация насыщенности            : 4:2:0
Битовая глубина                          : 8 бит
Тип развёртки                            : Прогрессивная
Метод сжатия                             : С потерями
Бит/(Пиксели*Кадры)                      : 0.287
Размер потока                            : 1,31 Гбайт (90%)
Библиотека кодирования                   : XviD 73

Аудио
Идентификатор                            : 1
Формат                                   : AC-3
Формат/Информация                        : Audio Coding 3
Коммерческое название                    : Dolby Digital
Идентификатор кодека                     : 2000
Продолжительность                        : 1 ч. 41 м.
Вид битрейта                             : Постоянный
Битрейт                                  : 192 Кбит/сек
Каналы                                   : 2 канала
ChannelLayout                            : L R
Частота                                  : 48,0 КГц
Частота кадров                           : 31,250 кадров/сек (1536 SPF)
Битовая глубина                          : 16 бит
Метод сжатия                             : С потерями
Размер потока                            : 139 Мбайт (9%)
Выравнивание                             : Разделение по промежуткам
Продолжительность промежутка             : 42  мс. (1,00 видеокадр)
Время предзагрузки промежутка            : 500  мс.



Скриншоты:
[+] Всего файлов в раздаче - 1:
Как я стал…_2018_WEB-DLRip.avi1.46 GB

Похожие раздачи по запросу - стал:
2019-03-08 U Как я стал русским (2018) WEB-DLRip от GeneralFilm | iTunes 745.58 MB ↑ 108 ↓ 24
2019-03-07 U Как я стал русским (2018) WEB-DL 1080p | iTunes 3.26 GB ↑ 953 ↓ 372
2019-03-07 U Как я стал русским (2018) WEB-DLRip от MegaPeer | iTunes 1.46 GB ↑ 377 ↓ 87
2019-03-07 U Как я стал русским (2018) WEB-DLRip от OlLanDGroup | iTunes 746.95 MB ↑ 345 ↓ 100
2019-03-07 U Как я стал русским (2018) WEB-DLRip-AVC от ExKinoRay | iTunes 1.52 GB ↑ 488 ↓ 278

Отзывы
Зарегистрируйтесь чтобы добавить комментарий.
Обратная связь
Copyleft ©