↑↓Torrent.by
Поиск
Логин: Регистрация
Пароль: Восстановить пароль
Загрузка...

Одиссея Петра (2018) WEB-DLRip | iTunes

Скачать odisseya-petra-2018-web-dlrip-itunes.torrent
U Магнитная ссылка Размер: 1.46 GB Раздают: 75 Качают: 16 Добавлен: 2019-07-13 07:48:20
Одиссея Петра (2018) WEB-DLRip | iTunes

Одиссея Петра

Страна: Россия
Производство: Art Pictures Studio
Год выпуска: 2018
Жанр:  драма, семейный
Продолжительность: 01:17:24

Режиссеры: Алексей Кузмин-Тарасов, Анна Колчина
В ролях: Дмитрий Габриелян, Светлана Немоляева, Мария Шашлова, Алексей Юдников, Наталья Курепова, Даниил Каменцев

Описание: 12-летний мальчик Петя каждое лето проводит на подмосковной даче со своей бабушкой. Но идиллическое лето 1996 года внезапно заканчивается, когда его родители решают эмигрировать в Германию. Не желая приспосабливаться к новой реальности, Петя отправляется в фантазийное путешествие домой...

Перевод: не требуется (оригинал) | iTunes
Субтитры: отдельным файлом / русские (forced)

Качество: WEB-DLRip
Формат: AVI
Видео кодек: XviD
Аудио кодек: АС3
Видео: 720x304 (2.35:1), 24.000 fps, XviD build 73 ~2 299 kbps avg
Аудио: 48.0 kHz, AC3 Dolby Digital, 3/2 (L,C,R,l,r) + LFE ch, ~384 kbps
Формат субтитров: *SRT

Дата премьеры (РФ): 11 декабря 2018

Релиз от: порошков


[+] Media Info
General
Формат                                   : AVI
Формат/Информация                        : Audio Video Interleave
Размер файла                             : 1,46 Гбайт
Продолжительность                        : 1 ч. 17 м.
Общий поток                              : 2693 Кбит/сек
Название фильма                          : Одиссея Петра_2018_WEB-DLRip
Программа кодирования                    : VirtualDubMod 1.5.10.3 | (build 2550/release)
Авторское право                          : порошков

Видео
Идентификатор                            : 0
Формат                                   : MPEG-4 Visual
Профиль формата                          : Advanced Simple@L5
Настройки формата                        : BVOP1 / Custom Matrix
Параметр BVOP формата                    : 1
Параметр QPel формата                    : Нет
Параметр GMC формата                     : Без точки перехода
Параметр матрицы формата                 : Выборочная
Идентификатор кодека                     : XVID
Идентификатор кодека/Подсказка           : XviD
Продолжительность                        : 1 ч. 17 м.
Битрейт                                  : 2299 Кбит/сек
Ширина                                   : 720 пикселей
Высота                                   : 304 пикселя
Соотношение сторон                       : 2,35:1
Частота кадров                           : 24,000 кадра/сек
Цветовое пространство                    : YUV
Субдискретизация насыщенности            : 4:2:0
Битовая глубина                          : 8 бит
Тип развёртки                            : Прогрессивная
Метод сжатия                             : С потерями
Бит/(Пиксели*Кадры)                      : 0.438
Размер потока                            : 1,24 Гбайт (85%)
Библиотека кодирования                   : XviD 73

Аудио
Идентификатор                            : 1
Формат                                   : AC-3
Формат/Информация                        : Audio Coding 3
Коммерческое название                    : Dolby Digital
Идентификатор кодека                     : 2000
Продолжительность                        : 1 ч. 17 м.
Вид битрейта                             : Постоянный
Битрейт                                  : 384 Кбит/сек
Каналы                                   : 6 каналов
ChannelLayout                            : L R C LFE Ls Rs
Частота                                  : 48,0 КГц
Частота кадров                           : 31,250 кадров/сек (1536 SPF)
Битовая глубина                          : 16 бит
Метод сжатия                             : С потерями
Размер потока                            : 213 Мбайт (14%)
Выравнивание                             : Разделение по промежуткам
Продолжительность промежутка             : 42  мс. (1,00 видеокадр)
Время предзагрузки промежутка            : 500  мс.



Скриншоты:
[+] Всего файлов в раздаче - 2:
Одиссея Петра_2018_WEB-DLRip.avi1.46 GB
Одиссея Петра_2018_WEB-DLRip.srt13.59 kB

Похожие раздачи по запросу - одиссея:
2018-05-30 U Фиделио или Одиссея Алисы / Fidelio, l'odyssée d'Alice (2014) WEBRip-AVC | L2 1.52 GB ↑ 152 ↓ 28

Отзывы
Зарегистрируйтесь чтобы добавить комментарий.
Обратная связь
Copyleft ©