↑↓Torrent.by
Поиск
Логин: Регистрация
Пароль: Восстановить пароль
Загрузка...

Гайлер (2017) WEBRip от GeneralFilm

Скачать gayler-2017-webrip-ot-generalfilm.torrent
U Магнитная ссылка Размер: 1.46 GB Раздают: 145 Качают: 55 Добавлен: 2019-07-13 11:30:49
Гайлер (2017) WEBRip от GeneralFilm

Оригинальное название: Гайлер
Год выпуска: 2017
Жанр:  Драма, криминал
Выпущено: Россия, ООО Продюсерский центр «1 февраля»
Режиссер: Пётр Дикарев, Михаил Меньших
В ролях: Захар Прилепин, Сергей Пускепалис, Алексей Вертков, Сергей Новиков, Артур Согоян, Ксения Шагаевская, Константин Телегин, Екатерина Жирова, Татьяна Жулянова, Зоя Терехова, Игорь Новиков, Владимир Казанцев, Владимир Дербенцев, Снежанна Мордвинова, Даниэлла Албаут

О фильме: Бизнесмен Дмитрий возвращается на малую родину — в небольшой городок в Сибири — после 15-летнего отсутствия. Причина возвращения трагическая: при ограблении погибли его родители, и Дмитрий настроен найти и лично покарать преступников. Вместе с ним приезжает его друг, армянин Рубик. До поры до времени никто не догадывается, что ради своей цели друзья готовы на многое, даже вернуться в суровое прошлое и превратиться в настоящих волков. Но жизнь вносит свои коррективы в их планы, поставив на кон жизнь Рубика…

Качество: WEBRip
Видео: XviD build 73, 720x304 (2.35:1), 25.000 fps, 1642 Kbps (0.300 bit/pixel)
Аудио: 48.0 kHz, AC3, 2/0 ch, 192 kbps
Продолжительность: 01:53:06
Перевод: Не требуется [Русский]
Cубтитры: нет

Релиз:


[+] MediaInfo
General
Complete name               : D:RazdachiGajler.2017.WEB-DLRip.GeneralFilm.avi
Format                      : AVI
Format/Info                 : Audio Video Interleave
File size                   : 1.46 GiB
Duration                    : 1 h 53 min
Overall bit rate            : 1 843 kb/s
Writing application         : VirtualDubMod 1.5.10.3 | www.virtualdub-fr.org || (build 2550/release)
Writing library             : VirtualDubMod build 2550/release

Video
ID                          : 0
Format                      : MPEG-4 Visual
Format profile              : Advanced Simple@L5
Format settings             : BVOP1 / Custom Matrix
Format settings, BVOP       : 1
Format settings, QPel       : No
Format settings, GMC        : No warppoints
Format settings, Matrix     : Custom
Codec ID                    : XVID
Codec ID/Hint               : XviD
Duration                    : 1 h 53 min
Bit rate                    : 1 642 kb/s
Width                       : 720 pixels
Height                      : 304 pixels
Display aspect ratio        : 2.35:1
Frame rate                  : 25.000 FPS
Color space                 : YUV
Chroma subsampling          : 4:2:0
Bit depth                   : 8 bits
Scan type                   : Progressive
Compression mode            : Lossy
Bits/(Pixel*Frame)          : 0.300
Stream size                 : 1.30 GiB (89%)
Writing library             : XviD 73

Audio
ID                          : 1
Format                      : AC-3
Format/Info                 : Audio Coding 3
Commercial name             : Dolby Digital
Codec ID                    : 2000
Duration                    : 1 h 53 min
Bit rate mode               : Constant
Bit rate                    : 192 kb/s
Channel(s)                  : 2 channels
Channel layout              : L R
Sampling rate               : 48.0 kHz
Frame rate                  : 31.250 FPS (1536 SPF)
Bit depth                   : 16 bits
Compression mode            : Lossy
Stream size                 : 155 MiB (10%)
Alignment                   : Split accross interleaves
Interleave, duration        : 40  ms (1.00 video frame)
Interleave, preload duratio : 500  ms
Service kind                : Complete Main



Скриншоты:
[+] Всего файлов в раздаче - 1:
Gajler.2017.WEB-DLRip.GeneralFilm.avi1.46 GB

Показать еще раздачи по запросу гайлер:
2019-07-16 U Гайлер (2017) WEBRip от GeneralFilm 747.17 MB ↑ 67 ↓ 8
2019-07-15 U Гайлер (2017) WEB-DLRip-AVC от New-Team 1.40 GB ↑ 37 ↓ 7
2019-07-14 U Гайлер (2017) WEB-DLRip-AVC от New-Team 745.31 MB ↑ 39 ↓ 13
2019-07-13 U Гайлер (2017) WEBRip-AVC от GeneralFilm 1.73 GB ↑ 71 ↓ 20
2019-07-13 U Гайлер (2017) WEBRip 720p от ExKinoRay 3.31 GB ↑ 101 ↓ 28
2019-07-13 U Гайлер (2017) WEBRip 1080p от ExKinoRay 4.81 GB ↑ 112 ↓ 74
2019-07-13 U Гайлер (2017) SATRip 1.37 GB ↑ 453 ↓ 122

Отзывы
Зарегистрируйтесь чтобы добавить комментарий.
Обратная связь
Copyleft ©