↑↓Torrent.by
Поиск
Логин: Регистрация
Пароль: Восстановить пароль
Загрузка...

Гайлер (2017) WEBRip-AVC от GeneralFilm

Скачать gayler-2017-webrip-avc-ot-generalfilm.torrent
U Магнитная ссылка Размер: 1.73 GB Раздают: 71 Качают: 20 Добавлен: 2019-07-13 20:27:30
Гайлер (2017) WEBRip-AVC от GeneralFilm

Год выпуска: 2017
Жанр:  Драма, криминал
Выпущено: Россия, ООО Продюсерский центр «1 февраля»
Режиссер: Пётр Дикарев, Михаил Меньших
В ролях: Захар Прилепин, Сергей Пускепалис, Алексей Вертков, Сергей Новиков, Артур Согоян, Ксения Шагаевская, Константин Телегин, Екатерина Жирова, Татьяна Жулянова, Зоя Терехова, Игорь Новиков, Владимир Казанцев, Владимир Дербенцев, Снежанна Мордвинова, Даниэлла Албаут

О фильме: Бизнесмен Дмитрий возвращается на малую родину — в небольшой городок в Сибири — после 15-летнего отсутствия. Причина возвращения трагическая: при ограблении погибли его родители, и Дмитрий настроен найти и лично покарать преступников. Вместе с ним приезжает его друг, армянин Рубик. До поры до времени никто не догадывается, что ради своей цели друзья готовы на многое, даже вернуться в суровое прошлое и превратиться в настоящих волков. Но жизнь вносит свои коррективы в их планы, поставив на кон жизнь Рубика…

Качество: WEBRip-AVC
Видео: MPEG-4 AVC, 2000 Кбит/с, 1024x432, 25 кадр/с
Аудио: Русский (AC3, 2 ch, 192 Кбит/с)
Продолжительность: 01:53:06
Перевод: Не требуется
Субтитры: нет

Релиз:


[+] MediaInfo

Общее
Уникальный идентификатор                 : 249813022316243856414125179417784602556 (0xBBF03CEEB9E9C3FCA8D4565F37F5CFBC)
Полное имя                               : D:«Гайлер» __ Гайлер __ передачи телеканала, онлайн-вещание НТВ, программа передач.mkv
Формат                                   : Matroska
Версия формата                           : Version 2
Размер файла                             : 1,73 Гбайт
Продолжительность                        : 1 ч. 53 м.
Общий поток                              : 2192 Кбит/сек
Дата кодирования                         : UTC 2019-07-13 04:46:36
Программа кодирования                    : mkvmerge v7.8.0 ('River Man') 32bit built on Apr  3 2015 12:11:22
Библиотека кодирования                   : libebml v1.3.1 + libmatroska v1.4.2

Видео
Идентификатор                            : 1
Формат                                   : AVC
Формат/Информация                        : Advanced Video Codec
Профиль формата                          : High@L4.1
Параметр CABAC формата                   : Да
Параметр ReFrames формата                : 9 кадров
Идентификатор кодека                     : V_MPEG4/ISO/AVC
Продолжительность                        : 1 ч. 53 м.
Битрейт                                  : 2000 Кбит/сек
Ширина                                   : 1024 пикселя
Высота                                   : 432 пикселя
Соотношение сторон                       : 2,40:1
Режим частоты кадров                     : Постоянный
Частота кадров                           : 25,000 кадров/сек
Цветовое пространство                    : YUV
Субдискретизация насыщенности            : 4:2:0
Битовая глубина                          : 8 бит
Тип развёртки                            : Прогрессивная
Бит/(Пиксели*Кадры)                      : 0.181
Размер потока                            : 1,55 Гбайт (89%)
Библиотека кодирования                   : x264 core 146 r2538 121396c
Настройки программы                      : cabac=1 / ref=9 / deblock=1:-2:-1 / analyse=0x3:0x113 / me=umh / subme=9 / psy=1 / psy_rd=1.00:0.15 / mixed_ref=1 / me_range=32 / chroma_me=1 / trellis=2 / 8x8dct=1 / cqm=0 / deadzone=21,11 / fast_pskip=0 / chroma_qp_offset=-3 / threads=18 / lookahead_threads=3 / sliced_threads=0 / nr=0 / decimate=1 / interlaced=0 / bluray_compat=0 / constrained_intra=0 / bframes=9 / b_pyramid=2 / b_adapt=2 / b_bias=0 / direct=3 / weightb=1 / open_gop=0 / weightp=2 / keyint=250 / keyint_min=25 / scenecut=40 / intra_refresh=0 / rc_lookahead=40 / rc=2pass / mbtree=0 / bitrate=2000 / ratetol=1.0 / qcomp=0.60 / qpmin=0 / qpmax=69 / qpstep=4 / cplxblur=20.0 / qblur=0.5 / vbv_maxrate=14000 / vbv_bufsize=14000 / nal_hrd=none / filler=0 / ip_ratio=1.40 / pb_ratio=1.30 / aq=2:1.00
Default                                  : Да
Forced                                   : Нет
Цветовой диапазон                        : Limited
Основные цвета                           : BT.709
Характеристики трансфера                 : BT.709
Коэффициенты матрицы                     : BT.709

Аудио
Идентификатор                            : 2
Формат                                   : AC-3
Формат/Информация                        : Audio Coding 3
Расширение режима                        : CM (complete main)
Параметр Endianness формата              : Big
Идентификатор кодека                     : A_AC3
Продолжительность                        : 1 ч. 53 м.
Вид битрейта                             : Постоянный
Битрейт                                  : 192 Кбит/сек
Каналы                                   : 2 канала
Расположение каналов                     : Front: L R
Частота                                  : 48,0 КГц
Частота кадров                           : 31,250 кадров/сек (1536 spf)
Битовая глубина                          : 16 бит
Метод сжатия                             : С потерями
Размер потока                            : 155 Мбайт (9%)
Default                                  : Да
Forced                                   : Нет




Скриншоты:
[+] Всего файлов в раздаче - 1:
Gajler.WEBRip.(AVC).GeneralFilm.mkv1.73 GB

Показать еще раздачи по запросу гайлер:
2019-07-16 U Гайлер (2017) WEBRip от GeneralFilm 747.17 MB ↑ 64 ↓ 7
2019-07-15 U Гайлер (2017) WEB-DLRip-AVC от New-Team 1.40 GB ↑ 37 ↓ 7
2019-07-14 U Гайлер (2017) WEB-DLRip-AVC от New-Team 745.31 MB ↑ 39 ↓ 13
2019-07-13 U Гайлер (2017) WEBRip 720p от ExKinoRay 3.31 GB ↑ 100 ↓ 28
2019-07-13 U Гайлер (2017) WEBRip от GeneralFilm 1.46 GB ↑ 146 ↓ 55
2019-07-13 U Гайлер (2017) WEBRip 1080p от ExKinoRay 4.81 GB ↑ 111 ↓ 74
2019-07-13 U Гайлер (2017) SATRip 1.37 GB ↑ 453 ↓ 122

Отзывы
Зарегистрируйтесь чтобы добавить комментарий.
Обратная связь
Copyleft ©