↑↓Torrent.by
Поиск
Логин: Регистрация
Пароль: Восстановить пароль
Загрузка...

Гайлер (2017) WEB-DLRip-AVC от New-Team

Скачать gayler-2017-web-dlrip-avc-ot-new-team.torrent
U Магнитная ссылка Размер: 745.31 MB Раздают: 39 Качают: 13 Добавлен: 2019-07-14 06:06:39
Гайлер (2017) WEB-DLRip-AVC от New-Team

Гайлер

Страна: Россия
Жанр:  драма, криминал
Год выпуска: 2017
Продолжительность: 01:53:06

Перевод: Не требуется
Субтитры: нет
Оригинальная аудиодорожка: русский

Режиссер: Петр Дикарев, Михаил Меньших

В ролях: Захар Прилепин, Артур Согоян, Сергей Пускепалис, Зоя Терехова, Игорь Новиков, Константин Телегин, Владимир Казанцев, Екатерина Жирова, Владимир Дербенцев, Татьяна Жулянова

Описание: Бизнесмен Дмитрий возвращается на малую родину — в небольшой городок в Сибири — после 15-летнего отсутствия. Причина возвращения трагическая: при ограблении погибли его родители, и Дмитрий настроен найти и лично покарать преступников. Вместе с ним приезжает его друг, армянин Рубик. До поры до времени никто не догадывается, что ради своей цели друзья готовы на многое, даже вернуться в суровое прошлое и превратиться в настоящих волков. Но жизнь вносит свои коррективы в их планы, поставив на кон жизнь Рубика.

Релиз:

Автор рипа: stalkerok

Семпл

Качество видео: WEB-DLRip-AVC | Исходник: WEB-DL 1080p (NTV)
Формат видео: MKV
Видео кодек: AVC
Аудио кодек: AAC
Видео: AVC, 856 Кбит/сек, 888x370 (2.40:1), 25 кадр/сек
Аудио: AAC, 64 Кбит/сек, 48 КГц, 2.0 - русский


[+] x264/MediaInfo


---[Information] [13.07.2019 16:59:22] x264 [info]: frame I:986   Avg QP:15.00  size: 35311
---[Information] [13.07.2019 16:59:22] x264 [info]: frame P:35667 Avg QP:18.94  size: 10192
---[Information] [13.07.2019 16:59:22] x264 [info]: frame B:132997 Avg QP:20.86  size:  2461

General
Unique ID                                : 47884132870433749139010172846040582361 (0x240626066E27F4BB4A706FC9490688D9)
Complete name                            : C:tempGajlerGayler.2017.WEB-DLRip.x264.Rus.stalkerok.New-Team..mkv
Format                                   : Matroska
Format version                           : Version 4
File size                                : 745 MiB
Duration                                 : 1 h 53 min
Overall bit rate                         : 921 kb/s
Movie name                               : Гайлер (2017) | Rip by stalkerok
Encoded date                             : UTC 2019-07-13 13:59:56
Writing application                      : mkvmerge v33.1.0 ('Primrose') 64-bit
Writing library                          : libebml v1.3.7 + libmatroska v1.5.0

Video
ID                                       : 1
Format                                   : AVC
Format/Info                              : Advanced Video Codec
Format profile                           : High@L4.1
Format settings                          : CABAC / 12 Ref Frames
Format settings, CABAC                   : Yes
Format settings, RefFrames               : 12 frames
Codec ID                                 : V_MPEG4/ISO/AVC
Duration                                 : 1 h 53 min
Bit rate                                 : 856 kb/s
Width                                    : 888 pixels
Height                                   : 370 pixels
Display aspect ratio                     : 2.40:1
Frame rate mode                          : Constant
Frame rate                               : 25.000 FPS
Color space                              : YUV
Chroma subsampling                       : 4:2:0
Bit depth                                : 8 bits
Scan type                                : Progressive
Bits/(Pixel*Frame)                       : 0.104
Stream size                              : 692 MiB (93%)
Title                                    : Гайлер (2017) | Rip by stalkerok
Writing library                          : x264 core 157 r2945 72db437
Encoding settings                        : cabac=1 / ref=12 / deblock=1:-2:-1 / analyse=0x3:0x133 / me=umh / subme=10 / psy=1 / psy_rd=1.00:0.00 / mixed_ref=1 / me_range=32 / chroma_me=1 / trellis=2 / 8x8dct=1 / cqm=0 / deadzone=21,11 / fast_pskip=0 / chroma_qp_offset=-2 / threads=12 / lookahead_threads=2 / sliced_threads=0 / nr=0 / decimate=0 / interlaced=0 / bluray_compat=0 / constrained_intra=0 / bframes=16 / b_pyramid=2 / b_adapt=2 / b_bias=0 / direct=3 / weightb=1 / open_gop=0 / weightp=2 / keyint=250 / keyint_min=25 / scenecut=40 / intra_refresh=0 / rc_lookahead=60 / rc=2pass / mbtree=0 / bitrate=856 / ratetol=1.0 / qcomp=0.65 / qpmin=0 / qpmax=69 / qpstep=4 / cplxblur=20.0 / qblur=0.5 / vbv_maxrate=50000 / vbv_bufsize=62500 / nal_hrd=none / filler=0 / ip_ratio=1.40 / pb_ratio=1.30 / aq=3:0.90
Default                                  : Yes
Forced                                   : No

Audio
ID                                       : 2
Format                                   : AAC LC SBR
Format/Info                              : Advanced Audio Codec Low Complexity with Spectral Band Replication
Commercial name                          : HE-AAC
Format settings                          : Explicit
Codec ID                                 : A_AAC-2
Duration                                 : 1 h 53 min
Bit rate                                 : 64.0 kb/s
Channel(s)                               : 2 channels
Channel layout                           : L R
Sampling rate                            : 48.0 kHz
Frame rate                               : 23.438 FPS (2048 SPF)
Compression mode                         : Lossy
Delay relative to video                  : 31 ms
Stream size                              : 51.8 MiB (7%)
Language                                 : Russian
Default                                  : Yes
Forced                                   : No




Скриншоты:
[+] Всего файлов в раздаче - 1:
Gayler.2017.WEB-DLRip.x264.Rus.stalkerok.New-Team..mkv745.31 MB

Показать еще раздачи по запросу гайлер:
2019-07-16 U Гайлер (2017) WEBRip от GeneralFilm 747.17 MB ↑ 64 ↓ 7
2019-07-15 U Гайлер (2017) WEB-DLRip-AVC от New-Team 1.40 GB ↑ 37 ↓ 7
2019-07-13 U Гайлер (2017) WEBRip-AVC от GeneralFilm 1.73 GB ↑ 71 ↓ 20
2019-07-13 U Гайлер (2017) WEBRip 720p от ExKinoRay 3.31 GB ↑ 100 ↓ 28
2019-07-13 U Гайлер (2017) WEBRip от GeneralFilm 1.46 GB ↑ 146 ↓ 55
2019-07-13 U Гайлер (2017) WEBRip 1080p от ExKinoRay 4.81 GB ↑ 111 ↓ 74
2019-07-13 U Гайлер (2017) SATRip 1.37 GB ↑ 453 ↓ 122

Отзывы
Зарегистрируйтесь чтобы добавить комментарий.
Обратная связь
Copyleft ©