↑↓Torrent.by
Поиск
Логин: Регистрация
Пароль: Восстановить пароль
Загрузка...

Дылда (2019) WEBRip-AVC от New-Team

Скачать dylda-2019-webrip-avc-ot-new-team.torrent
U Магнитная ссылка Размер: 1.44 GB Раздают: 465 Качают: 197 Добавлен: 2019-07-14 16:02:41
Дылда (2019) WEBRip-AVC от New-Team

Дылда

Страна: Россия
Жанр:  драма
Год выпуска: 2019
Продолжительность: 02:17:06

Перевод: Не требуется
Субтитры: нет
Оригинальная аудиодорожка: русский

Режиссер: Кантемир Балагов

В ролях: Виктория Мирошниченко, Василиса Перелыгина, Андрей Быков, Игорь Широков, Константин Балакирев, Ксения Кутепова, Ольга Драгунова, Тимофей Глазков

Описание: История двух молодых женщин-фронтовичек, которые возвращаются в послевоенный Ленинград и пытаются обрести новую мирную жизнь, когда и вокруг, и главное, внутри них - руины.

Релиз:

Автор рипа: stalkerok

Семпл

Качество видео: WEBRip-AVC | Исходник: WEBRip 1080p (Kinopoisk)
Формат видео: MKV
Видео кодек: AVC
Аудио кодек: AAC
Видео: AVC, 1375 Кбит/сек, 768x416 (1.85:1), 24 кадр/сек
Аудио: AAC, 128 Кбит/сек, 48 КГц, 2.0 - русский


[+] x264/MediaInfo


---[Information] [13.07.2019 21:12:46] x264 [info]: frame I:956   Avg QP:18.53  size: 39303
---[Information] [13.07.2019 21:12:46] x264 [info]: frame P:35242 Avg QP:19.67  size: 17112
---[Information] [13.07.2019 21:12:46] x264 [info]: frame B:161245 Avg QP:21.69  size:  4797

General
Unique ID                                : 49299758345246954211280805966111018169 (0x2516C9BFED319D1537EAC1C14A878CB9)
Complete name                            : C:tempDyldaDylda.2019.WEB-DLRip.x264.Rus.stalkerok.New-Team.mkv
Format                                   : Matroska
Format version                           : Version 4 / Version 2
File size                                : 1.44 GiB
Duration                                 : 2 h 17 min
Overall bit rate                         : 1 505 kb/s
Movie name                               : Дылда | Rip by stalkerok
Encoded date                             : UTC 2019-07-14 11:14:52
Writing application                      : mkvmerge v33.1.0 ('Primrose') 64-bit
Writing library                          : libebml v1.3.7 + libmatroska v1.5.0

Video
ID                                       : 1
Format                                   : AVC
Format/Info                              : Advanced Video Codec
Format profile                           : High@L4.1
Format settings, CABAC                   : Yes
Format settings, ReFrames                : 12 frames
Codec ID                                 : V_MPEG4/ISO/AVC
Duration                                 : 2 h 17 min
Bit rate                                 : 1 375 kb/s
Width                                    : 768 pixels
Height                                   : 416 pixels
Display aspect ratio                     : 1.85:1
Frame rate mode                          : Constant
Frame rate                               : 24.000 FPS
Color space                              : YUV
Chroma subsampling                       : 4:2:0
Bit depth                                : 8 bits
Scan type                                : Progressive
Bits/(Pixel*Frame)                       : 0.179
Stream size                              : 1.32 GiB (91%)
Title                                    : Дылда | Rip by stalkerok
Writing library                          : x264 core 157 r2945 72db437
Encoding settings                        : cabac=1 / ref=12 / deblock=1:-2:-1 / analyse=0x3:0x133 / me=umh / subme=11 / psy=1 / psy_rd=1.00:0.00 / mixed_ref=1 / me_range=32 / chroma_me=1 / trellis=2 / 8x8dct=1 / cqm=0 / deadzone=21,11 / fast_pskip=0 / chroma_qp_offset=-2 / threads=12 / lookahead_threads=3 / sliced_threads=0 / nr=0 / decimate=1 / interlaced=0 / bluray_compat=0 / constrained_intra=0 / bframes=14 / b_pyramid=2 / b_adapt=2 / b_bias=0 / direct=3 / weightb=1 / open_gop=0 / weightp=2 / keyint=240 / keyint_min=23 / scenecut=40 / intra_refresh=0 / rc_lookahead=60 / rc=crf / mbtree=0 / crf=19.3 / qcomp=0.65 / qpmin=0 / qpmax=69 / qpstep=4 / vbv_maxrate=50000 / vbv_bufsize=62500 / crf_max=0.0 / nal_hrd=none / filler=0 / ip_ratio=1.40 / pb_ratio=1.30 / aq=1:1.00 / zones=190869,197442,q=34
Default                                  : Yes
Forced                                   : No

Audio
ID                                       : 2
Format                                   : AAC
Format/Info                              : Advanced Audio Codec
Format profile                           : LC
Codec ID                                 : A_AAC
Duration                                 : 2 h 17 min
Bit rate                                 : 128 kb/s
Channel(s)                               : 2 channels
Channel positions                        : Front: L R
Sampling rate                            : 48.0 kHz
Frame rate                               : 46.875 FPS (1024 spf)
Compression mode                         : Lossy
Delay relative to video                  : 9 ms
Stream size                              : 126 MiB (9%)
Language                                 : Russian
Default                                  : Yes
Forced                                   : No




Скриншоты:
[+] Всего файлов в раздаче - 1:
Dylda.2019.WEB-DLRip.x264.Rus.stalkerok.New-Team.mkv1.44 GB

Показать еще раздачи по запросу дылда:
2019-10-05 U Дылда (2019) WEB-DLRip от MegaPeer | iTunes 2.18 GB ↑ 114 ↓ 24
2019-09-16 U Дылда / Tall Girl (2019) WEBRip 720p | D | Пифагор 2.47 GB ↑ 28 ↓ 15
2019-09-16 U Дылда (2019) WEBRip-AVC от ExKinoRay 2.17 GB ↑ 48 ↓ 25
2019-09-13 U Дылда / Tall Girl (2019) WEB-DLRip от MegaPeer | D 1.46 GB ↑ 176 ↓ 80
2019-09-13 U Дылда / Tall Girl (2019) WEBRip | Пифагор 1.45 GB ↑ 193 ↓ 59
2019-09-13 U Дылда / Tall Girl (2019) WEBRip 1080p | Пифагор 3.95 GB ↑ 152 ↓ 80
2019-07-19 U Дылда (2019) WEB-DLRip от Scarabey 1.45 GB ↑ 346 ↓ 23

Отзывы
Зарегистрируйтесь чтобы добавить комментарий.
Обратная связь
Copyleft ©