↑↓Torrent.by
Поиск
Логин: Регистрация
Пароль: Восстановить пароль

Дылда (2019) WEBRip-AVC от New-Team

Скачать dylda-2019-webrip-avc-ot-new-team.torrent
U Магнитная ссылка Размер: 2.85 GB Раздают: 252 Качают: 137 Добавлен: 2019-07-14 16:03:15
Дылда (2019) WEBRip-AVC от New-Team

Дылда

Страна: Россия
Жанр:  драма
Год выпуска: 2019
Продолжительность: 02:17:06

Перевод: Не требуется
Субтитры: нет
Оригинальная аудиодорожка: русский

Режиссер: Кантемир Балагов

В ролях: Виктория Мирошниченко, Василиса Перелыгина, Андрей Быков, Игорь Широков, Константин Балакирев, Ксения Кутепова, Ольга Драгунова, Тимофей Глазков

Описание: История двух молодых женщин-фронтовичек, которые возвращаются в послевоенный Ленинград и пытаются обрести новую мирную жизнь, когда и вокруг, и главное, внутри них - руины.

Релиз:

Автор рипа: stalkerok

Семпл

Качество видео: WEBRip-AVC | Исходник: WEB-DL 1080p (Kinopoisk)
Формат видео: MKV
Видео кодек: AVC
Аудио кодек: AAC
Видео: AVC, 2731 Кбит/сек, 1056x572 (1.85:1), 24 кадр/сек
Аудио: AAC, 244 Кбит/сек, 48 КГц, 2.0 - русский


[+] x264/MediaInfo


---[Information] [14.07.2019 2:49:04] x264 [info]: frame I:949   Avg QP:18.58  size: 62858
---[Information] [14.07.2019 2:49:04] x264 [info]: frame P:35374 Avg QP:20.18  size: 32103
---[Information] [14.07.2019 2:49:04] x264 [info]: frame B:161120 Avg QP:22.04  size: 10014

General
Unique ID                                : 159239012737986955441275178055809593833 (0x77CC517BC2836D296B010873B6A771E9)
Complete name                            : C:tempDyldaDylda.2019.WEB-DLRip.x264.Rus.stalkerok.New-Team..mkv
Format                                   : Matroska
Format version                           : Version 4
File size                                : 2.85 GiB
Duration                                 : 2 h 17 min
Overall bit rate                         : 2 978 kb/s
Movie name                               : Дылда (2019) | Rip by stalkerok
Encoded date                             : UTC 2019-07-14 11:47:40
Writing application                      : mkvmerge v33.1.0 ('Primrose') 64-bit
Writing library                          : libebml v1.3.7 + libmatroska v1.5.0

Video
ID                                       : 1
Format                                   : AVC
Format/Info                              : Advanced Video Codec
Format profile                           : High@L4.1
Format settings                          : CABAC / 12 Ref Frames
Format settings, CABAC                   : Yes
Format settings, RefFrames               : 12 frames
Codec ID                                 : V_MPEG4/ISO/AVC
Duration                                 : 2 h 17 min
Bit rate                                 : 2 731 kb/s
Width                                    : 1 056 pixels
Height                                   : 572 pixels
Display aspect ratio                     : 1.85:1
Frame rate mode                          : Constant
Frame rate                               : 24.000 FPS
Color space                              : YUV
Chroma subsampling                       : 4:2:0
Bit depth                                : 8 bits
Scan type                                : Progressive
Bits/(Pixel*Frame)                       : 0.188
Stream size                              : 2.62 GiB (92%)
Title                                    : Дылда (2019) | Rip by stalkerok
Writing library                          : x264 core 157 r2945 72db437
Encoding settings                        : cabac=1 / ref=12 / deblock=1:-2:-1 / analyse=0x3:0x133 / me=umh / subme=11 / psy=1 / psy_rd=1.00:0.00 / mixed_ref=1 / me_range=32 / chroma_me=1 / trellis=2 / 8x8dct=1 / cqm=0 / deadzone=21,11 / fast_pskip=0 / chroma_qp_offset=-2 / threads=12 / lookahead_threads=3 / sliced_threads=0 / nr=0 / decimate=1 / interlaced=0 / bluray_compat=0 / constrained_intra=0 / bframes=14 / b_pyramid=2 / b_adapt=2 / b_bias=0 / direct=3 / weightb=1 / open_gop=0 / weightp=2 / keyint=240 / keyint_min=23 / scenecut=40 / intra_refresh=0 / rc_lookahead=60 / rc=crf / mbtree=0 / crf=19.5 / qcomp=0.65 / qpmin=0 / qpmax=69 / qpstep=4 / vbv_maxrate=50000 / vbv_bufsize=62500 / crf_max=0.0 / nal_hrd=none / filler=0 / ip_ratio=1.40 / pb_ratio=1.30 / aq=1:0.90 / zones=190869,197442,q=30
Default                                  : Yes
Forced                                   : No

Audio
ID                                       : 2
Format                                   : AAC LC
Format/Info                              : Advanced Audio Codec Low Complexity
Codec ID                                 : A_AAC-2
Duration                                 : 2 h 17 min
Bit rate                                 : 244 kb/s
Channel(s)                               : 2 channels
Channel layout                           : L R
Sampling rate                            : 48.0 kHz
Frame rate                               : 46.875 FPS (1024 SPF)
Compression mode                         : Lossy
Stream size                              : 239 MiB (8%)
Language                                 : Russian
Default                                  : Yes
Forced                                   : No




Скриншоты:
[+] Всего файлов в раздаче - 1:
Dylda.2019.WEB-DLRip.x264.Rus.stalkerok.New-Team..mkv2.85 GB

Показать еще раздачи по запросу дылда:
2019-10-05 U Дылда (2019) WEB-DLRip от MegaPeer | iTunes 2.18 GB ↑ 127 ↓ 24
2019-09-16 U Дылда / Tall Girl (2019) WEBRip 720p | D | Пифагор 2.47 GB ↑ 28 ↓ 15
2019-09-16 U Дылда (2019) WEBRip-AVC от ExKinoRay 2.17 GB ↑ 63 ↓ 25
2019-09-13 U Дылда / Tall Girl (2019) WEB-DLRip от MegaPeer | D 1.46 GB ↑ 187 ↓ 80
2019-09-13 U Дылда / Tall Girl (2019) WEBRip | Пифагор 1.45 GB ↑ 216 ↓ 59
2019-07-19 U Дылда (2019) WEB-DLRip от Scarabey 1.45 GB ↑ 393 ↓ 28
2019-07-17 U Дылда (2019) WEBRip-AVC 743.48 MB ↑ 39 ↓ 29

Отзывы
Зарегистрируйтесь чтобы добавить комментарий.
Обратная связь
Copyleft ©