↑↓Torrent.by
Поиск
Логин: Регистрация
Пароль: Восстановить пароль

Алита: Боевой ангел / Alita: Battle Angel (2019) BDRip 1080p от селезень | Локализованная версия | D, P | Лицензия

Скачать alita-boevoy-angel-battle-2019-bdrip-1080p-ot-selezen-lokalizovannaya-versiya-d-p-licenziya.torrent
U Магнитная ссылка Размер: 9.85 GB Раздают: 466 Качают: 263 Добавлен: 2019-07-14 21:02:30
Алита: Боевой ангел / Alita: Battle Angel (2019) BDRip 1080p от селезень | Локализованная версия | D, P | Лицензия

Название: Алита: Боевой ангел
Оригинальное название: Alita: Battle Angel
Год выхода: 2019
Жанр: Фантастика, боевик, триллер, мелодрама, приключения
Режиссер: Роберт Родригес
В ролях: Роза Салазар, Кристоф Вальц, Дженнифер Коннелли, Махершала Али, Эд Скрейн, Джеки Эрл Хейли, Кин Джонсон, Хорхе Лендеборг мл., Лана Кондор, Идара Виктор

О фильме: Действие фильма происходит через 300 лет после Великой войны в XXVI веке. Доктор Идо находит останки женщины-киборга. После починки киборг ничего не помнит, но обнаруживает, что в состоянии пользоваться боевыми приемами киборгов. Начинаются поиски утерянных воспоминаний.

Страна: Канада, Аргентина, США
Студия: Twentieth Century Fox, Lightstorm Entertainment, Troublemaker Studios
Продолжительность: 02:01:57
Перевод(ы):
#1: Дублированный | Лицензия
#2: Профессиональный многоголосый | СВ Студия
#3: Профессиональный многоголосый | HDRezka Studio

Качество: BDRip 1080p
Видео: MPEG-4 AVC, 1920x804, 8867 Kbit/s, 23.976 fps
Звук:
Аудио #01: 48 kHz, DTS, 5.1, 768 Kbps | Дублированный | RUS |
Аудио #02: 48 kHz, AC3, 5.1, 448 Kbps | Дублированный | RUS |
Аудио #03: 48 kHz, AC3, 2.0, 192 Kbps | СВ Студия | RUS |
Аудио #04: 48 kHz, AC3, 2.0, 192 Kbps | HDRezka Studio | RUS |
Аудио #05: 48 kHz, AC3, 5.1, 448 Kbps | Дублированный | UKR |
Аудио #06: 48 kHz, AC3, 5.1, 640 Kbps | Оригинал |  ENG |
Субтитры: Русские (Forced, 2 x full), украинские (Full), английские

Релиз:


[+] MI
General
Unique ID                   : 260791455443770088736436411956073712494 (0xC4329B79D82D5DA64B527283E201CB6E)
Complete name               : D:Video111Alita.Battle.Angel.2019.Lic.LOCAL.BDRip.1080p.seleZen.mkv
Format                      : Matroska
Format version              : Version 4
File size                   : 9.85 GiB
Duration                    : 2 h 1 min
Overall bit rate            : 11.6 Mb/s
Movie name                  : Alita Battle Angel 2019 from селезень
Encoded date                : UTC 2019-07-14 14:57:09
Writing application         : mkvmerge v22.0.0 ('At The End Of The World') 64-bit
Writing library             : libebml v1.3.5 + libmatroska v1.4.8

Video
ID                          : 1
Format                      : AVC
Format/Info                 : Advanced Video Codec
Format profile              : High@L4.1
Format settings             : CABAC / 5 Ref Frames
Format settings, CABAC      : Yes
Format settings, Reference  : 5 frames
Codec ID                    : V_MPEG4/ISO/AVC
Duration                    : 2 h 1 min
Bit rate                    : 8 867 kb/s
Width                       : 1 920 pixels
Height                      : 804 pixels
Display aspect ratio        : 2.40:1
Frame rate mode             : Constant
Frame rate                  : 23.976 (24000/1001) FPS
Color space                 : YUV
Chroma subsampling          : 4:2:0
Bit depth                   : 8 bits
Scan type                   : Progressive
Bits/(Pixel*Frame)          : 0.240
Stream size                 : 7.55 GiB (77%)
Title                       : seleZen
Writing library             : x264 core 148 r2705kMod 3f5ed56
Encoding settings           : cabac=1 / ref=5 / deblock=1:-2:-2 / analyse=0x3:0x133 / me=umh / subme=10 / psy=1 / fade_compensate=0.00 / psy_rd=1.20:0.05 / mixed_ref=1 / me_range=32 / chroma_me=1 / trellis=2 / 8x8dct=1 / cqm=0 / deadzone=21,11 / fast_pskip=0 / chroma_qp_offset=-3 / threads=12 / lookahead_threads=2 / sliced_threads=0 / nr=0 / decimate=0 / interlaced=0 / bluray_compat=0 / constrained_intra=0 / fgo=0 / bframes=8 / b_pyramid=2 / b_adapt=2 / b_bias=0 / direct=3 / weightb=1 / open_gop=0 / weightp=2 / keyint=240 / keyint_min=23 / scenecut=40 / intra_refresh=0 / rc_lookahead=50 / rc=2pass / mbtree=0 / bitrate=8867 / ratetol=1.0 / qcomp=0.60 / qpmin=0 / qpmax=51 / qpstep=4 / cplxblur=20.0 / qblur=0.5 / vbv_maxrate=50000 / vbv_bufsize=62500 / nal_hrd=none / filler=0 / ip_ratio=1.40 / pb_ratio=1.30 / aq=3:0.80
Language                    : English
Default                     : Yes
Forced                      : No

Audio #1
ID                          : 2
Format                      : DTS
Format/Info                 : Digital Theater Systems
Codec ID                    : A_DTS
Duration                    : 2 h 1 min
Bit rate mode               : Constant
Bit rate                    : 768 kb/s
Channel(s)                  : 6 channels
Channel layout              : C L R Ls Rs LFE
Sampling rate               : 48.0 kHz
Frame rate                  : 93.750 FPS (512 SPF)
Bit depth                   : 24 bits
Compression mode            : Lossy
Stream size                 : 670 MiB (7%)
Title                       : Dub [License]
Language                    : Russian
Default                     : Yes
Forced                      : Yes

Audio #2
ID                          : 3
Format                      : AC-3
Format/Info                 : Audio Coding 3
Commercial name             : Dolby Digital
Codec ID                    : A_AC3
Duration                    : 2 h 1 min
Bit rate mode               : Constant
Bit rate                    : 448 kb/s
Channel(s)                  : 6 channels
Channel layout              : L R C LFE Ls Rs
Sampling rate               : 48.0 kHz
Frame rate                  : 31.250 FPS (1536 SPF)
Bit depth                   : 16 bits
Compression mode            : Lossy
Stream size                 : 391 MiB (4%)
Title                       : Dub [License]
Language                    : Russian
Service kind                : Complete Main
Default                     : No
Forced                      : No

Audio #3
ID                          : 4
Format                      : AC-3
Format/Info                 : Audio Coding 3
Commercial name             : Dolby Digital
Codec ID                    : A_AC3
Duration                    : 2 h 1 min
Bit rate mode               : Constant
Bit rate                    : 192 kb/s
Channel(s)                  : 2 channels
Channel layout              : L R
Sampling rate               : 48.0 kHz
Frame rate                  : 31.250 FPS (1536 SPF)
Bit depth                   : 16 bits
Compression mode            : Lossy
Stream size                 : 167 MiB (2%)
Title                       : MVO [СВ Студия]
Language                    : Russian
Service kind                : Complete Main
Default                     : No
Forced                      : No

Audio #4
ID                          : 5
Format                      : AC-3
Format/Info                 : Audio Coding 3
Commercial name             : Dolby Digital
Codec ID                    : A_AC3
Duration                    : 2 h 1 min
Bit rate mode               : Constant
Bit rate                    : 192 kb/s
Channel(s)                  : 2 channels
Channel layout              : L R
Sampling rate               : 48.0 kHz
Frame rate                  : 31.250 FPS (1536 SPF)
Bit depth                   : 16 bits
Compression mode            : Lossy
Stream size                 : 167 MiB (2%)
Title                       : MVO [HDRezka Studio]
Language                    : Russian
Service kind                : Complete Main
Default                     : No
Forced                      : No

Audio #5
ID                          : 6
Format                      : AC-3
Format/Info                 : Audio Coding 3
Commercial name             : Dolby Digital
Codec ID                    : A_AC3
Duration                    : 2 h 1 min
Bit rate mode               : Constant
Bit rate                    : 448 kb/s
Channel(s)                  : 6 channels
Channel layout              : L R C LFE Ls Rs
Sampling rate               : 48.0 kHz
Frame rate                  : 31.250 FPS (1536 SPF)
Bit depth                   : 16 bits
Compression mode            : Lossy
Stream size                 : 391 MiB (4%)
Title                       : Dub [License]
Language                    : Ukrainian
Service kind                : Complete Main
Default                     : No
Forced                      : No

Audio #6
ID                          : 7
Format                      : AC-3
Format/Info                 : Audio Coding 3
Commercial name             : Dolby Digital
Codec ID                    : A_AC3
Duration                    : 2 h 1 min
Bit rate mode               : Constant
Bit rate                    : 640 kb/s
Channel(s)                  : 6 channels
Channel layout              : L R C LFE Ls Rs
Sampling rate               : 48.0 kHz
Frame rate                  : 31.250 FPS (1536 SPF)
Bit depth                   : 16 bits
Compression mode            : Lossy
Stream size                 : 558 MiB (6%)
Title                       : Original
Language                    : English
Service kind                : Complete Main
Default                     : No
Forced                      : No

Text #1
ID                          : 8
Format                      : UTF-8
Codec ID                    : S_TEXT/UTF8
Codec ID/Info               : UTF-8 Plain Text
Duration                    : 2 s 544 ms
Bit rate                    : 251 b/s
Count of elements           : 1
Stream size                 : 80.0 Bytes (0%)
Title                       : Forced
Language                    : Russian
Default                     : Yes
Forced                      : Yes

Text #2
ID                          : 9
Format                      : UTF-8
Codec ID                    : S_TEXT/UTF8
Codec ID/Info               : UTF-8 Plain Text
Duration                    : 2 h 1 min
Bit rate                    : 50 b/s
Count of elements           : 1052
Stream size                 : 44.9 KiB (0%)
Title                       : Full [License]
Language                    : Russian
Default                     : No
Forced                      : No

Text #3
ID                          : 10
Format                      : UTF-8
Codec ID                    : S_TEXT/UTF8
Codec ID/Info               : UTF-8 Plain Text
Duration                    : 1 h 56 min
Bit rate                    : 64 b/s
Count of elements           : 1318
Stream size                 : 55.4 KiB (0%)
Title                       : Full [FOCS]
Language                    : Russian
Default                     : No
Forced                      : No

Text #4
ID                          : 11
Format                      : UTF-8
Codec ID                    : S_TEXT/UTF8
Codec ID/Info               : UTF-8 Plain Text
Duration                    : 2 h 1 min
Bit rate                    : 48 b/s
Count of elements           : 1254
Stream size                 : 43.4 KiB (0%)
Title                       : Full [License]
Language                    : Ukrainian
Default                     : No
Forced                      : No

Text #5
ID                          : 12
Format                      : UTF-8
Codec ID                    : S_TEXT/UTF8
Codec ID/Info               : UTF-8 Plain Text
Duration                    : 1 h 55 min
Bit rate                    : 41 b/s
Count of elements           : 1347
Stream size                 : 34.9 KiB (0%)
Title                       : Full
Language                    : English
Default                     : No
Forced                      : No

Text #6
ID                          : 13
Format                      : UTF-8
Codec ID                    : S_TEXT/UTF8
Codec ID/Info               : UTF-8 Plain Text
Duration                    : 1 h 56 min
Bit rate                    : 46 b/s
Count of elements           : 1590
Stream size                 : 39.5 KiB (0%)
Title                       : SDH
Language                    : English
Default                     : No
Forced                      : No

Menu
00:00:00.000                : en:Chapter 01
00:03:28.625                : en:Chapter 02
00:07:51.680                : en:Chapter 03
00:10:07.982                : en:Chapter 04
00:13:06.703                : en:Chapter 05
00:15:06.739                : en:Chapter 06
00:18:04.542                : en:Chapter 07
00:22:58.711                : en:Chapter 08
00:25:35.325                : en:Chapter 09
00:31:40.899                : en:Chapter 10
00:33:29.216                : en:Chapter 11
00:36:32.816                : en:Chapter 12
00:38:30.892                : en:Chapter 13
00:42:05.481                : en:Chapter 14
00:45:58.214                : en:Chapter 15
00:48:31.450                : en:Chapter 16
00:52:57.007                : en:Chapter 17
00:55:14.353                : en:Chapter 18
01:00:39.761                : en:Chapter 19
01:02:56.564                : en:Chapter 20
01:05:16.788                : en:Chapter 21
01:10:50.496                : en:Chapter 22
01:13:37.288                : en:Chapter 23
01:16:35.216                : en:Chapter 24
01:18:52.227                : en:Chapter 25
01:22:48.297                : en:Chapter 26
01:24:55.340                : en:Chapter 27
01:28:25.217                : en:Chapter 28
01:33:18.551                : en:Chapter 29
01:36:08.763                : en:Chapter 30
01:41:54.692                : en:Chapter 31
01:45:23.442                : en:Chapter 32
01:48:16.490                : en:Chapter 33
01:51:43.655                : en:Chapter 34
01:54:43.668                : en:Chapter 35
01:56:51.504                : en:Chapter 36



Скриншоты:
[+] Всего файлов в раздаче - 1:
Alita.Battle.Angel.2019.Lic.LOCAL.BDRip.1080p.seleZen.mkv9.85 GB

Показать еще раздачи по запросу алита:
2019-11-11 U Алита: Боевой ангел / Alita: Battle Angel (2019) BDRip от HQ-ViDEO | Локализованная версия | Лицензия 2.18 GB ↑ 30 ↓ 12
2019-11-05 U Алита: Боевой ангел / Alita: Battle Angel (2019) UHD BDRip-HEVC 1080p от HEVC-CLUB | SDR | Локализованная версия | Лицензия 7.05 GB ↑ 52 ↓ 23
2019-08-11 U Алита: Боевой ангел / Alita: Battle Angel (2019) UHD BDRip-HEVC 1440p | HDR | D | Локализованная версия | Лицензия 8.90 GB ↑ 57 ↓ 18
2019-07-19 U Алита: Боевой ангел / Alita: Battle Angel (2019) BDRip 720p от Scarabey | Лицензия 6.06 GB ↑ 106 ↓ 73
2019-07-15 U Алита: Боевой ангел / Alita: Battle Angel (2019) BDRip 1080p от qqss44 & MegaPeer | Локализованная версия | Лицензия 7.76 GB ↑ 318 ↓ 153
2019-07-14 U Алита: Боевой ангел / Alita: Battle Angel (2019) BDRip от MegaPeer | Локализованная версия | Лицензия 2.18 GB ↑ 542 ↓ 51
2019-07-12 U Алита: Боевой ангел / Alita: Battle Angel (2019) BDRip 1080p от селезень | D, P | iTunes 11.94 GB ↑ 125 ↓ 174

Отзывы
Зарегистрируйтесь чтобы добавить комментарий.
Обратная связь
Copyleft ©