↑↓Torrent.by
Поиск
Логин: Регистрация
Пароль: Восстановить пароль
Загрузка...

Дылда (2019) WEBRip от GeneralFilm

Скачать dylda-2019-webrip-ot-generalfilm.torrent
U Магнитная ссылка Размер: 1.46 GB Раздают: 238 Качают: 63 Добавлен: 2019-07-15 05:34:54
Дылда (2019) WEBRip от GeneralFilm

Оригинальное название: Дылда
Год выпуска: 2019
Жанр:  Драма
Выпущено: Россия, «Нон-стоп Продакшн»
Режиссер: Кантемир Балагов
В ролях: Виктория Мирошниченко, Василиса Перелыгина, Андрей Быков, Игорь Широков, Константин Балакирев, Ксения Кутепова, Ольга Драгунова, Тимофей Глазков

О фильме: История двух молодых женщин-фронтовичек, которые возвращаются в послевоенный Ленинград и пытаются обрести новую мирную жизнь, когда и вокруг, и главное, внутри них - руины.

Качество: WEBRip
Видео: XviD build 73, 720x384 (1.85:1), 24.000 fps, 1319 Kbps (0.199 bit/pixel)
Аудио: 48.0 kHz, AC3, 2/0 ch, 192 kbps
Продолжительность: 02:17:06
Перевод: Не требуется [Русский]
Cубтитры: нет

Релиз:


[+] MediaInfo
General
Complete name               : D:RazdachiDylda.2019.WEB-DLRip.GeneralFilm.avi
Format                      : AVI
Format/Info                 : Audio Video Interleave
File size                   : 1.46 GiB
Duration                    : 2 h 17 min
Overall bit rate            : 1 520 kb/s
Writing application         : VirtualDubMod 1.5.10.3 | www.virtualdub-fr.org || (build 2550/release)
Writing library             : VirtualDubMod build 2550/release

Video
ID                          : 0
Format                      : MPEG-4 Visual
Format profile              : Advanced Simple@L5
Format settings             : BVOP1 / Custom Matrix
Format settings, BVOP       : 1
Format settings, QPel       : No
Format settings, GMC        : No warppoints
Format settings, Matrix     : Custom
Codec ID                    : XVID
Codec ID/Hint               : XviD
Duration                    : 2 h 17 min
Bit rate                    : 1 319 kb/s
Width                       : 720 pixels
Height                      : 384 pixels
Display aspect ratio        : 1.85:1
Frame rate                  : 24.000 FPS
Color space                 : YUV
Chroma subsampling          : 4:2:0
Bit depth                   : 8 bits
Scan type                   : Progressive
Compression mode            : Lossy
Bits/(Pixel*Frame)          : 0.199
Stream size                 : 1.26 GiB (87%)
Writing library             : XviD 73

Audio
ID                          : 1
Format                      : AC-3
Format/Info                 : Audio Coding 3
Commercial name             : Dolby Digital
Codec ID                    : 2000
Duration                    : 2 h 17 min
Bit rate mode               : Constant
Bit rate                    : 192 kb/s
Channel(s)                  : 2 channels
Channel layout              : L R
Sampling rate               : 48.0 kHz
Frame rate                  : 31.250 FPS (1536 SPF)
Bit depth                   : 16 bits
Compression mode            : Lossy
Delay relative to video     : 24 ms
Stream size                 : 188 MiB (13%)
Alignment                   : Split accross interleaves
Interleave, duration        : 42  ms (1.00 video frame)
Interleave, preload duratio : 500  ms
Service kind                : Complete Main



Скриншоты:
[+] Всего файлов в раздаче - 1:
Dylda.2019.WEB-DLRip.GeneralFilm.avi1.46 GB

Похожие раздачи по запросу - дылда:
2019-07-19 U Дылда (2019) WEB-DLRip от Scarabey 1.45 GB ↑ 194 ↓ 17
2019-07-17 U Дылда (2019) WEBRip-AVC 743.48 MB ↑ 38 ↓ 20
2019-07-15 U Дылда (2019) WEB-DL 1080p 4.01 GB ↑ 298 ↓ 49
2019-07-14 U Дылда (2019) WEBRip-AVC от New-Team 2.85 GB ↑ 185 ↓ 136
2019-07-14 U Дылда (2019) WEBRip-AVC от New-Team 1.44 GB ↑ 319 ↓ 195

Отзывы
Зарегистрируйтесь чтобы добавить комментарий.
Обратная связь
Copyleft ©