↑↓Torrent.by
Поиск
Логин: Регистрация
Пароль: Восстановить пароль
Загрузка...

Дылда (2019) WEB-DL 1080p

Скачать dylda-2019-web-dl-1080p.torrent
U Магнитная ссылка Размер: 4.01 GB Раздают: 591 Качают: 59 Добавлен: 2019-07-15 05:34:58
Дылда (2019) WEB-DL 1080p

Название: Дылда
Год выхода: 2019
Жанр: Драма
Режиссер: Кантемир Балагов
В ролях: Виктория Мирошниченко, Василиса Перелыгина, Андрей Быков, Игорь Широков, Константин Балакирев, Ксения Кутепова, Ольга Драгунова, Тимофей Глазков

О фильме: История двух молодых женщин-фронтовичек, которые возвращаются в послевоенный Ленинград и пытаются обрести новую мирную жизнь, когда и вокруг, и главное, внутри них — руины.

Страна: Россия
Студия: Нон-стоп Продакшн
Продолжительность: 02:17:07
Перевод: Русский язык

Файл
Кодек: MPEG-4 AVC
Качество: WEB-DL 1080p
Видео: 1920x1080, 3911 kb/s, 24.000 fps
Звук: 192 kb/s, 2 ch, 48000 kHz, AC3 [RUS]
Субтитры: Отсутствуют

РЕКЛАМА ОТСУТСТВУЕТ


[+] MI

Формат                                   : Matroska
Версия формата                           : Version 4 / Version 2
Размер файла                             : 4,01 Гбайт
Продолжительность                        : 2 ч. 17 м.
Общий поток                              : 4187 Кбит/сек
Программа кодирования                    : Lavf56.36.100
Библиотека кодирования                   : Lavf56.36.100

Видео
Идентификатор                            : 1
Формат                                   : AVC
Формат/Информация                        : Advanced Video Codec
Профиль формата                          : High@L4
Настройки формата                        : CABAC / 4 Ref Frames
Параметр CABAC формата                   : Да
Параметр RefFrames формата               : 4 кадра
Идентификатор кодека                     : V_MPEG4/ISO/AVC
Продолжительность                        : 2 ч. 17 м.
Битрейт                                  : 3911 Кбит/сек
Номинальный битрейт                      : 5000 Кбит/сек
Ширина                                   : 1920 пикселей
Высота                                   : 1080 пикселей
Соотношение сторон                       : 16:9
Режим частоты кадров                     : Постоянный
Частота кадров                           : 24,000 кадра/сек
Цветовое пространство                    : YUV
Субдискретизация насыщенности            : 4:2:0
Битовая глубина                          : 8 бит
Тип развёртки                            : Прогрессивная
Бит/(Пиксели*Кадры)                      : 0.079
Размер потока                            : 3,75 Гбайт (93%)
Библиотека кодирования                   : x264 core 148 r2721 72d53ab
Настройки программы                      : cabac=1 / ref=4 / deblock=1:0:0 / analyse=0x3:0x133 / me=umh / subme=10 / psy=1 / psy_rd=1.00:0.00 / mixed_ref=1 / me_range=24 / chroma_me=1 / trellis=2 / 8x8dct=1 / cqm=0 / deadzone=21,11 / fast_pskip=1 / chroma_qp_offset=-2 / threads=34 / lookahead_threads=5 / sliced_threads=0 / nr=0 / decimate=1 / interlaced=0 / bluray_compat=0 / constrained_intra=0 / bframes=8 / b_pyramid=2 / b_adapt=2 / b_bias=0 / direct=3 / weightb=1 / open_gop=0 / weightp=2 / keyint=96 / keyint_min=48 / scenecut=40 / intra_refresh=0 / rc_lookahead=60 / rc=2pass / mbtree=1 / bitrate=5000 / ratetol=1.0 / qcomp=0.60 / qpmin=0 / qpmax=69 / qpstep=4 / cplxblur=20.0 / qblur=0.5 / vbv_maxrate=5500 / vbv_bufsize=920 / nal_hrd=none / filler=0 / ip_ratio=1.40 / aq=1:1.00
Default                                  : Да
Forced                                   : Нет
Цветовой диапазон                        : Limited

Аудио
Идентификатор                            : 2
Формат                                   : AC-3
Формат/Информация                        : Audio Coding 3
Идентификатор кодека                     : A_AC3
Продолжительность                        : 2 ч. 17 м.
Вид битрейта                             : Постоянный
Битрейт                                  : 192 Кбит/сек
Каналы                                   : 2 канала
Расположение каналов                     : Front: L R
Частота                                  : 48,0 КГц
Частота кадров                           : 31,250 кадров/сек (1536 SPF)
Битовая глубина                          : 16 бит
Метод сжатия                             : С потерями
Задержка видео                           : -417 мс.
Размер потока                            : 188 Мбайт (5%)
Язык                                     : Russian
Default                                  : Да
Forced                                   : Нет



Скриншоты:
[+] Всего файлов в раздаче - 1:
DyLda.2019.O.WEB-DL.1080p.mkv4.01 GB

Показать еще раздачи по запросу дылда:
2019-10-05 U Дылда (2019) WEB-DLRip от MegaPeer | iTunes 2.18 GB ↑ 115 ↓ 24
2019-09-16 U Дылда / Tall Girl (2019) WEBRip 720p | D | Пифагор 2.47 GB ↑ 28 ↓ 15
2019-09-16 U Дылда (2019) WEBRip-AVC от ExKinoRay 2.17 GB ↑ 49 ↓ 25
2019-09-13 U Дылда / Tall Girl (2019) WEB-DLRip от MegaPeer | D 1.46 GB ↑ 183 ↓ 80
2019-09-13 U Дылда / Tall Girl (2019) WEBRip | Пифагор 1.45 GB ↑ 196 ↓ 59
2019-09-13 U Дылда / Tall Girl (2019) WEBRip 1080p | Пифагор 3.95 GB ↑ 152 ↓ 80
2019-07-19 U Дылда (2019) WEB-DLRip от Scarabey 1.45 GB ↑ 351 ↓ 23

Отзывы
Зарегистрируйтесь чтобы добавить комментарий.
Обратная связь
Copyleft ©