↑↓Torrent.by
Поиск
Логин: Регистрация
Пароль: Восстановить пароль
Загрузка...

Если бы да кабы (2016) HDTVRip от GeneralFilm

Скачать esli-by-da-kaby-2016-hdtvrip-ot-generalfilm.torrent
U Магнитная ссылка Размер: 1.45 GB Раздают: 85 Качают: 35 Добавлен: 2019-07-15 05:35:31
Если бы да кабы (2016) HDTVRip от GeneralFilm

Оригинальное название: Если бы да кабы
Год выпуска: 2016
Жанр:  Комедия, мелодрама
Выпущено: Украина, Россия, Кинокомпания "Star Media"
Режиссер: Олег Туранский
В ролях: Олеся Фаттахова, Тимофей Каратаев, Анастасия Задорожная, Дмитрий Шаракоис, Анна Кузина, Игорь Пазыч

О фильме: Почему умирает любовь? Почему раньше тебе казалось, что ты встретила Его, «единственного и неповторимого», а сейчас ты не вспомнишь день своего первого свидания? Почему, думая о прошлом, ты считаешь, что совершила ошибку, и грустно вздыхаешь: вот если бы… 35-летней Екатерине Колесниковой кажется, что жизнь не задалась: вместо Миланского подиума – фабрика по пошиву спецодежды. А некогда яркий и талантливый муж-музыкант превратился в унылого районного фининспектора? И… Судьба дает Кате шанс вернуться на 17 лет назад и попытаться изменить свою жизнь. Но сделает ли это ее счастливой?

Качество: HDTVRip
Видео: XviD build 73, 720x400 (16:9), 25.000 fps, 1938 Kbps (0.269 bit/pixel)
Аудио: 48.0 kHz, AC3, 2/0 ch, 192 kbps
Продолжительность: 01:37:16
Перевод: Не требуется [Русский]
Cубтитры: нет

Релиз:


[+] MediaInfo
General
Complete name               : D:RazdachiEsli.By.Da.Kaby.2016.HDTVRip.GeneralFilm.avi
Format                      : AVI
Format/Info                 : Audio Video Interleave
File size                   : 1.45 GiB
Duration                    : 1 h 37 min
Overall bit rate            : 2 140 kb/s
Writing application         : VirtualDubMod 1.5.10.3 | www.virtualdub-fr.org || (build 2550/release)
Writing library             : VirtualDubMod build 2550/release

Video
ID                          : 0
Format                      : MPEG-4 Visual
Format profile              : Advanced Simple@L5
Format settings             : BVOP1 / Custom Matrix
Format settings, BVOP       : 1
Format settings, QPel       : No
Format settings, GMC        : No warppoints
Format settings, Matrix     : Custom
Codec ID                    : XVID
Codec ID/Hint               : XviD
Duration                    : 1 h 37 min
Bit rate                    : 1 938 kb/s
Width                       : 720 pixels
Height                      : 400 pixels
Display aspect ratio        : 16:9
Frame rate                  : 25.000 FPS
Color space                 : YUV
Chroma subsampling          : 4:2:0
Bit depth                   : 8 bits
Scan type                   : Progressive
Compression mode            : Lossy
Bits/(Pixel*Frame)          : 0.269
Stream size                 : 1.32 GiB (91%)
Writing library             : XviD 73

Audio
ID                          : 1
Format                      : AC-3
Format/Info                 : Audio Coding 3
Commercial name             : Dolby Digital
Codec ID                    : 2000
Duration                    : 1 h 37 min
Bit rate mode               : Constant
Bit rate                    : 192 kb/s
Channel(s)                  : 2 channels
Channel layout              : L R
Sampling rate               : 48.0 kHz
Frame rate                  : 31.250 FPS (1536 SPF)
Bit depth                   : 16 bits
Compression mode            : Lossy
Stream size                 : 134 MiB (9%)
Alignment                   : Split accross interleaves
Interleave, duration        : 40  ms (1.00 video frame)
Interleave, preload duratio : 500  ms
Service kind                : Complete Main



Скриншоты:
[+] Всего файлов в раздаче - 1:
Esli.By.Da.Kaby.2016.HDTVRip.GeneralFilm.avi1.45 GB

Похожие раздачи по запросу - если:
2019-07-21 U Если бы да кабы (2016) WEB-DL 1080p от ExKinoRay 3.61 GB ↑ 34 ↓ 3
2019-07-15 U Если бы да кабы (2016) HDTVRip 720p от ExKinoRay 2.85 GB ↑ 95 ↓ 34
2019-06-21 U Если Бил-стрит могла бы заговорить / If Beale Street Could Talk (2018) BDRip 1080p от селезень | Лицензия 13.01 GB ↑ 98 ↓ 9
2019-06-21 U Если Бил-стрит могла бы заговорить / If Beale Street Could Talk (2018) BDRip от MegaPeer | Лицензия 1.46 GB ↑ 186 ↓ 9
2018-02-26 U Журнал «Если» [001-241] (1991-2015) FB2 496.00 MB ↑ 508 ↓ 49
2018-01-02 U Олег Соломонов - Как научиться управлять людьми, или Если хочешь быть лидером (2014) FB2 1.30 MB ↑ 430 ↓ 10

Отзывы
Зарегистрируйтесь чтобы добавить комментарий.
Обратная связь
Copyleft ©