↑↓Torrent.by
Поиск
Логин: Регистрация
Пароль: Восстановить пароль
Загрузка...

Гайлер (2017) WEBRip от GeneralFilm

Скачать gayler-2017-webrip-ot-generalfilm.torrent
U Магнитная ссылка Размер: 747.17 MB Раздают: 64 Качают: 7 Добавлен: 2019-07-16 05:35:10
Гайлер (2017) WEBRip от GeneralFilm

Оригинальное название: Гайлер
Год выпуска: 2017
Жанр:  Драма, криминал
Выпущено: Россия, ООО Продюсерский центр «1 февраля»
Режиссер: Пётр Дикарев, Михаил Меньших
В ролях: Захар Прилепин, Сергей Пускепалис, Алексей Вертков, Сергей Новиков, Артур Согоян, Ксения Шагаевская, Константин Телегин, Екатерина Жирова, Татьяна Жулянова, Зоя Терехова, Игорь Новиков, Владимир Казанцев, Владимир Дербенцев, Снежанна Мордвинова, Даниэлла Албаут

О фильме: Бизнесмен Дмитрий возвращается на малую родину — в небольшой городок в Сибири — после 15-летнего отсутствия. Причина возвращения трагическая: при ограблении погибли его родители, и Дмитрий настроен найти и лично покарать преступников. Вместе с ним приезжает его друг, армянин Рубик. До поры до времени никто не догадывается, что ради своей цели друзья готовы на многое, даже вернуться в суровое прошлое и превратиться в настоящих волков. Но жизнь вносит свои коррективы в их планы, поставив на кон жизнь Рубика…

Качество: WEBRip
Видео: XviD build 73, 688x288 (2.40:1), 25.000 fps, 786 Kbps (0.159 bit/pixel)
Аудио: 48.0 kHz, MP3, 2/0 ch, 128 kbps
Продолжительность: 01:53:06
Перевод: Не требуется [Русский]
Cубтитры: нет

Релиз:


[+] MediaInfo
General
Complete name               : D:RazdachiGajler.2017.WEB-DLRip.745Mb.GeneralFilm.avi
Format                      : AVI
Format/Info                 : Audio Video Interleave
File size                   : 747 MiB
Duration                    : 1 h 53 min
Overall bit rate            : 924 kb/s
Writing application         : VirtualDubMod 1.5.10.3 | www.virtualdub-fr.org || (build 2550/release)
Writing library             : VirtualDubMod build 2550/release

Video
ID                          : 0
Format                      : MPEG-4 Visual
Format profile              : Advanced Simple@L5
Format settings             : BVOP1 / Custom Matrix
Format settings, BVOP       : 1
Format settings, QPel       : No
Format settings, GMC        : No warppoints
Format settings, Matrix     : Custom
Codec ID                    : XVID
Codec ID/Hint               : XviD
Duration                    : 1 h 53 min
Bit rate                    : 786 kb/s
Width                       : 688 pixels
Height                      : 288 pixels
Display aspect ratio        : 2.40:1
Frame rate                  : 25.000 FPS
Color space                 : YUV
Chroma subsampling          : 4:2:0
Bit depth                   : 8 bits
Scan type                   : Progressive
Compression mode            : Lossy
Bits/(Pixel*Frame)          : 0.159
Stream size                 : 636 MiB (85%)
Writing library             : XviD 73

Audio
ID                          : 1
Format                      : MPEG Audio
Format version              : Version 1
Format profile              : Layer 3
Codec ID                    : 55
Codec ID/Hint               : MP3
Duration                    : 1 h 53 min
Bit rate mode               : Constant
Bit rate                    : 128 kb/s
Channel(s)                  : 2 channels
Sampling rate               : 48.0 kHz
Frame rate                  : 41.667 FPS (1152 SPF)
Compression mode            : Lossy
Stream size                 : 104 MiB (14%)
Alignment                   : Aligned on interleaves
Interleave, duration        : 40  ms (1.00 video frame)
Interleave, preload duratio : 504  ms
Writing library             : LAME3.99r
Encoding settings           : -m s -V 4 -q 2 -lowpass 17 -b 128



Скриншоты:
[+] Всего файлов в раздаче - 1:
Gajler.2017.WEB-DLRip.745Mb.GeneralFilm.avi747.17 MB

Показать еще раздачи по запросу гайлер:
2019-07-15 U Гайлер (2017) WEB-DLRip-AVC от New-Team 1.40 GB ↑ 37 ↓ 7
2019-07-14 U Гайлер (2017) WEB-DLRip-AVC от New-Team 745.31 MB ↑ 39 ↓ 13
2019-07-13 U Гайлер (2017) WEBRip-AVC от GeneralFilm 1.73 GB ↑ 71 ↓ 20
2019-07-13 U Гайлер (2017) WEBRip 720p от ExKinoRay 3.31 GB ↑ 100 ↓ 28
2019-07-13 U Гайлер (2017) WEBRip от GeneralFilm 1.46 GB ↑ 146 ↓ 55
2019-07-13 U Гайлер (2017) WEBRip 1080p от ExKinoRay 4.81 GB ↑ 111 ↓ 74
2019-07-13 U Гайлер (2017) SATRip 1.37 GB ↑ 453 ↓ 122

Отзывы
Зарегистрируйтесь чтобы добавить комментарий.
Обратная связь
Copyleft ©