↑↓Torrent.by
Поиск
Логин: Регистрация
Пароль: Восстановить пароль
Загрузка...

Алита: Боевой ангел / Alita: Battle Angel (2019) BDRip-HEVC 1080p от HANNIBAL | Лицензия

Скачать alita-boevoy-angel-battle-2019-bdrip-hevc-1080p-ot-hannibal-licenziya.torrent
U Магнитная ссылка Размер: 8.32 GB Раздают: 159 Качают: 96 Добавлен: 2019-07-16 19:15:07
Алита: Боевой ангел / Alita: Battle Angel (2019) BDRip-HEVC 1080p от HANNIBAL | Лицензия

Название: Алита: Боевой ангел
Оригинальное название: Alita: Battle Angel
Год выхода: 2019
Жанр: Фантастика, боевик
Режиссер: Роберт Родригес
В ролях: Роза Салазар, Кристоф Вальц, Дженнифер Коннелли, Махершала Али, Эд Скрейн, Джеки Эрл Хейли, Кин Джонсон, Хорхе Лендеборг мл., Лана Кондор, Идара Виктор

О фильме:
Действие фильма происходит через 300 лет после Великой войны в XXVI веке. Доктор Идо находит останки женщины-киборга. После починки киборг ничего не помнит, но обнаруживает, что в состоянии пользоваться боевыми приемами киборгов. Начинаются поиски утерянных воспоминаний.

Страна: Канада, Аргентина, США
Студия: Twentieth Century Fox, Lightstorm Entertainment, Troublemaker Studios
Продолжительность: 02:01:57
Перевод: Дублированный (Лицензия)

Файл
Качество: BDRip-HEVC 1080p
Видео: HEVC/x.265, 1920x804, ~9309 kb/s
Аудио 1: AC3, 6 ch, 448 Kbps  Дублированный (Лицензия)
Аудио 2: AC3, 6 ch, 448 Kbps  (Оригинал)
Субтитры: Русские(Forced, Full), Английские

Релиз:
[+] Mediainfo

x265 info: frame I:   2088, Avg QP:16.10  kb/s: 26658.75
x265 info: frame P:  36502, Avg QP:17.76  kb/s: 17710.74
x265 info: frame B: 136850, Avg QP:19.73  kb/s: 6802.32
x265 info: Weighted P-Frames: Y:7.4% UV:5.9%
x265 info: Weighted B-Frames: Y:6.5% UV:4.7%
x265 info: consecutive B-frames: 10.8% 6.5% 7.2% 36.1% 7.3% 13.1% 2.7% 15.5% 0.8%

General
Unique ID                   : 293357127182182821454664305524861787896 (0xDCB2870E6E7A6E83D7FA4A3DE82F5EF8)
Complete name               : E:Alita Battle Angel (2019) BDRip 1080p [HEVC] 10bit.mkv
Format                      : Matroska
Format version              : Version 4
File size                   : 8.32 GiB
Duration                    : 2 h 1 min
Overall bit rate            : 9 770 kb/s
Movie name                  : Алита: Боевой ангел
Encoded date                : UTC 2019-07-15 19:26:38
Writing application         : mkvmerge v25.0.0 ('Prog Noir') 64-bit
Writing library             : libebml v1.3.6 + libmatroska v1.4.9 / Lavf57.71.100
Attachments                 : poster.jpg
ACTORS                      : Роза Салазар, Кристоф Вальц,
COUNTRY                     : США
DATE                        : 2019
DIRECTOR                    : Роберт Родригес
ENCODING_INFO               : MATROSKA,WEBM > MKV / H264 > X265 CRF 18.5 Пользовательский 2
GENRE                       : фантастика, боевик, триллер
HD_VIDEO                    : 1
Language                    : und
MEDIA_TYPE                  : 9
ORIGINAL_TITLE              : Alita: Battle Angel

Video
ID                          : 1
Format                      : HEVC
Format/Info                 : High Efficiency Video Coding
Format profile              : Main 10@L4.1@High
Codec ID                    : V_MPEGH/ISO/HEVC
Duration                    : 2 h 1 min
Bit rate                    : 9 309 kb/s
Width                       : 1 920 pixels
Height                      : 804 pixels
Display aspect ratio        : 2.40:1
Frame rate mode             : Constant
Frame rate                  : 23.976 (24000/1001) FPS
Color space                 : YUV
Chroma subsampling          : 4:2:0
Bit depth                   : 10 bits
Bits/(Pixel*Frame)          : 0.252
Stream size                 : 7.93 GiB (95%)
Writing library             : x265 2.9+9-f74003e88622:[Windows][GCC 8.2.0][64 bit] 10bit
Encoding settings           : cpuid=1111039 / frame-threads=13 / numa-pools=12 / wpp / no-pmode / no-pme / no-psnr / no-ssim / log-level=3 / input-csp=1 / input-res=1920x804 / interlace=0 / total-frames=0 / level-idc=41 / high-tier=1 / uhd-bd=0 / ref=5 / allow-non-conformance / no-repeat-headers / annexb / no-aud / no-hrd / info / hash=0 / no-temporal-layers / open-gop / min-keyint=23 / keyint=240 / gop-lookahead=0 / bframes=8 / b-adapt=2 / b-pyramid / bframe-bias=0 / rc-lookahead=60 / lookahead-slices=4 / scenecut=40 / radl=0 / no-intra-refresh / ctu=64 / min-cu-size=8 / rect / amp / max-tu-size=32 / tu-inter-depth=4 / tu-intra-depth=4 / limit-tu=0 / rdoq-level=2 / dynamic-rd=0.00 / no-ssim-rd / signhide / no-tskip / nr-intra=0 / nr-inter=0 / no-constrained-intra / no-strong-intra-smoothing / max-merge=5 / limit-refs=2 / limit-modes / me=3 / subme=7 / merange=57 / temporal-mvp / weightp / weightb / no-analyze-src-pics / deblock=-3:-3 / no-sao / no-sao-non-deblock / rd=6 / no-early-skip / rskip / no-fast-intra / no-tskip-fast / no-cu-lossless / b-intra / no-splitrd-skip / rdpenalty=0 / psy-rd=2.00 / psy-rdoq=1.00 / no-rd-refine / no-lossless / cbqpoffs=0 / crqpoffs=0 / rc=crf / crf=18.5 / qcomp=0.70 / qpstep=4 / stats-write=0 / stats-read=0 / vbv-maxrate=50000 / vbv-bufsize=50000 / vbv-init=0.9 / crf-max=0.0 / crf-min=0.0 / ipratio=1.40 / pbratio=1.30 / aq-mode=2 / aq-strength=1.00 / no-cutree / zone-count=0 / no-strict-cbr / qg-size=32 / no-rc-grain / qpmax=69 / qpmin=0 / no-const-vbv / sar=1 / overscan=0 / videoformat=5 / range=0 / colorprim=1 / transfer=1 / colormatrix=1 / chromaloc=0 / display-window=0 / max-cll=0,0 / min-luma=0 / max-luma=1023 / log2-max-poc-lsb=8 / vui-timing-info / vui-hrd-info / slices=1 / no-opt-qp-pps / no-opt-ref-list-length-pps / no-multi-pass-opt-rps / scenecut-bias=0.05 / no-opt-cu-delta-qp / aq-motion / no-hdr / no-hdr-opt / no-dhdr10-opt / no-idr-recovery-sei / analysis-reuse-level=5 / scale-factor=0 / refine-intra=0 / refine-inter=0 / refine-mv=0 / no-limit-sao / ctu-info=0 / no-lowpass-dct / refine-mv-type=0 / copy-pic=1 / max-ausize-factor=1.0 / no-dynamic-refine / no-single-sei
Language                    : English
Default                     : Yes
Forced                      : No
Color range                 : Limited
Color primaries             : BT.709
Transfer characteristics    : BT.709
Matrix coefficients         : BT.709

Audio #1
ID                          : 2
Format                      : AC-3
Format/Info                 : Audio Coding 3
Commercial name             : Dolby Digital
Codec ID                    : A_AC3
Duration                    : 2 h 1 min
Bit rate mode               : Constant
Bit rate                    : 448 kb/s
Channel(s)                  : 6 channels
Channel layout              : L R C LFE Ls Rs
Sampling rate               : 48.0 kHz
Frame rate                  : 31.250 FPS (1536 SPF)
Bit depth                   : 16 bits
Compression mode            : Lossy
Stream size                 : 391 MiB (5%)
Language                    : Russian
Service kind                : Complete Main
Default                     : Yes
Forced                      : No

Audio #2
ID                          : 3
Format                      : AC-3
Format/Info                 : Audio Coding 3
Commercial name             : Dolby Digital
Codec ID                    : A_AC3
Duration                    : 2 min 43 s
Bit rate mode               : Constant
Bit rate                    : 448 kb/s
Channel(s)                  : 6 channels
Channel layout              : L R C LFE Ls Rs
Sampling rate               : 48.0 kHz
Frame rate                  : 31.250 FPS (1536 SPF)
Bit depth                   : 16 bits
Compression mode            : Lossy
Stream size                 : 8.75 MiB (0%)
Title                       : ENG
Service kind                : Complete Main
Default                     : No
Forced                      : No

Text #1
ID                          : 4
Format                      : UTF-8
Codec ID                    : S_TEXT/UTF8
Codec ID/Info               : UTF-8 Plain Text
Duration                    : 2 s 544 ms
Bit rate                    : 251 b/s
Count of elements           : 1
Stream size                 : 80.0 Bytes (0%)
Title                       : Forced
Language                    : Russian
Default                     : Yes
Forced                      : Yes

Text #2
ID                          : 5
Format                      : UTF-8
Codec ID                    : S_TEXT/UTF8
Codec ID/Info               : UTF-8 Plain Text
Duration                    : 1 h 56 min
Bit rate                    : 64 b/s
Count of elements           : 1318
Stream size                 : 55.4 KiB (0%)
Title                       : Full
Language                    : Russian
Default                     : No
Forced                      : No

Text #3
ID                          : 6
Format                      : UTF-8
Codec ID                    : S_TEXT/UTF8
Codec ID/Info               : UTF-8 Plain Text
Duration                    : 1 h 56 min
Bit rate                    : 46 b/s
Count of elements           : 1590
Stream size                 : 39.5 KiB (0%)
Title                       : SDH
Language                    : English
Default                     : No
Forced                      : No

Menu
00:00:00.000                : :Глава 01
00:03:28.625                : :Глава 02
00:07:51.680                : :Глава 03
00:10:07.982                : :Глава 04
00:13:06.703                : :Глава 05
00:15:06.739                : :Глава 06
00:18:04.542                : :Глава 07
00:22:58.711                : :Глава 08
00:25:35.325                : :Глава 09
00:31:40.899                : :Глава 10
00:33:29.216                : :Глава 11
00:36:32.816                : :Глава 12
00:38:30.892                : :Глава 13
00:42:05.481                : :Глава 14
00:45:58.214                : :Глава 15
00:48:31.450                : :Глава 16
00:52:57.007                : :Глава 17
00:55:14.353                : :Глава 18
01:00:39.761                : :Глава 19
01:02:56.564                : :Глава 20
01:05:16.788                : :Глава 21
01:10:50.496                : :Глава 22
01:13:37.288                : :Глава 23
01:16:35.216                : :Глава 24
01:18:52.227                : :Глава 25
01:22:48.297                : :Глава 26
01:24:55.340                : :Глава 27
01:28:25.217                : :Глава 28
01:33:18.551                : :Глава 29
01:36:08.763                : :Глава 30
01:41:54.692                : :Глава 31
01:45:23.442                : :Глава 32
01:48:16.490                : :Глава 33
01:51:43.655                : :Глава 34
01:54:43.668                : :Глава 35
01:56:51.504                : :Глава 36




Скриншоты:
[+] Всего файлов в раздаче - 1:
Alita Battle Angel (2019) BDRip 1080p [HEVC] 10bit.mkv8.32 GB

Показать еще раздачи по запросу алита:
2019-08-11 U Алита: Боевой ангел / Alita: Battle Angel (2019) UHD BDRip-HEVC 1440p | HDR | D | Локализованная версия | Лицензия 8.90 GB ↑ 28 ↓ 18
2019-08-11 U Алита: Боевой ангел / Alita: Battle Angel (2019) BDRip от MegaPeer | Локализованная версия | Лицензия 748.09 MB ↑ 30 ↓ 6
2019-07-25 U Алита: Боевой ангел / Alita: Battle Angel (2019) BDRip 1080p | 60 fps | Локализованная версия | D, P | Лицензия 8.55 GB ↑ 47 ↓ 52
2019-07-24 U Алита: Боевой ангел / Alita: Battle Angel (2019) WEB-DLRip-HEVC 720p | D | Open Matte 3.14 GB ↑ 26 ↓ 5
2019-07-20 U Алита: Боевой ангел / Alita: Battle Angel (2019) WEB-DLRip от Scarabey | Лицензия | Open Matte 1.45 GB ↑ 74 ↓ 16
2019-07-19 U Алита: Боевой ангел / Alita: Battle Angel (2019) BDRip 720p от Scarabey | Лицензия 6.06 GB ↑ 92 ↓ 70
2019-07-18 U Алита: Боевой ангел / Alita: Battle Angel (2019) BDRip от Twister & ExKinoRay | Локализованная версия | Лицензия 2.18 GB ↑ 62 ↓ 29

Отзывы
Зарегистрируйтесь чтобы добавить комментарий.
Обратная связь
Copyleft ©