↑↓Torrent.by
Поиск
Логин: Регистрация
Пароль: Восстановить пароль
Загрузка...

Алита: Боевой ангел / Alita: Battle Angel (2019) UHD BDRemux 2160p от ExKinoRay | 4K | HDR | D, P | Локализованная версия | Лицензия

Скачать alita-boevoy-angel-battle-2019-uhd-bdremux-2160p-ot-exkinoray-4k-hdr-d-p-lokalizovannaya-versiya-licenziya.torrent
U Магнитная ссылка Размер: 41.88 GB Раздают: 46 Качают: 122 Добавлен: 2019-07-16 19:15:57
Алита: Боевой ангел / Alita: Battle Angel (2019) UHD BDRemux 2160p от ExKinoRay | 4K | HDR | D, P | Локализованная версия | Лицензия

Алита: Боевой ангел
Alita: Battle Angel
«Ангел падёт, и восстанет воин»

Название: Алита: Боевой ангел
Оригинальное название: Alita: Battle Angel
Год выпуска: 2019
Жанр:  Фантастика, боевик, триллер, мелодрама, приключения
Выпущено: Канада, Аргентина, США, Twentieth Century Fox, Lightstorm Entertainment, Troublemaker Studios
Режиссер: Роберт Родригес
В ролях: Роза Салазар, Кристоф Вальц, Дженнифер Коннелли, Махершала Али, Эд Скрейн, Джеки Эрл Хейли, Кин Джонсон, Хорхе Лендеборг мл., Лана Кондор, Идара Виктор
Продолжительность: 02:01:57
Перевод: Дублированный | Лицензия

Описание:
Действие фильма происходит через 300 лет после Великой войны в XXVI веке. Доктор Идо находит останки женщины-киборга. После починки киборг ничего не помнит, но обнаруживает, что в состоянии пользоваться боевыми приемами киборгов. Начинаются поиски утерянных воспоминаний.

Файл
Контейнер: BDMV
Качество: Blu-Ray (2160p)
Видео: HEVC HDR/HDR10+, HEVC, 41,4 Mбит/с, 3840x2160, 23.976 кадр/с (Локализованная версия)

Аудио #1: DTS, 48.0 kHz, 6 ch, 768 kb/s, CBR (Russian) | Дублированный
Аудио #2: AC-3, 48.0 kHz, 6 ch, 448 kb/s, CBR (Russian) | Дублированный
Аудио #3: AC-3, 48.0 kHz, 2 ch, 192 kb/s, CBR (Russian) | СВ Студия
Аудио #4: AC-3, 48.0 kHz, 2 ch, 192 kb/s, CBR (Russian) | HDRezka Studio
Аудио #5: AC-3, 48.0 kHz, 6 ch, 448 kb/s, CBR (Ukrainian) | Дублированный
Аудио #6: TrueHD TrueHD+Atmos / TrueHD,  / 48.0 kHz, Object Based / 8 ch, 5 013 kb/s, VBR (English) |
Аудио #7: AC-3, 48.0 kHz, 6 ch, 640 kb/s, CBR (English) |

Субтитры: Русские (Forced, 2 x full), украинские (Full), английские

Релиз:


[+] MI:


Общее
Уникальный идентификатор                 : 307693240739314183649427536327427055725 (0xE77B9006B8541DCBCF0D1912FFC1606D)
Полное имя                               : Alita.Battle.Angel.2019.Lic.LOCAL.UHD.BDRemux.2160p.HEVC.HDR.IVA(RUS.UKR.ENG).ExKinoRay.mkv
Формат                                   : Matroska
Версия формата                           : Version 4
Размер файла                             : 41,9 Гбайт
Продолжительность                        : 2 ч. 1 м.
Режим общего битрейта                    : Переменный
Общий поток                              : 49,2 Мбит/сек
Название фильма                          : Алита: Боевой ангел / Alita: Battle Angel (2019) UHD BDRemux | HDR, 4K | IVA(RUS.UKR.ENG) | ExKinoRay
Дата кодирования                         : UTC 2019-07-15 18:53:44
Программа кодирования                    : mkvmerge v35.0.0 ('All The Love In The World') 64-bit
Библиотека кодирования                   : libebml v1.3.9 + libmatroska v1.5.2
Обложка                                  : Yes
Attachments                              : cover

Видео
Идентификатор                            : 1
Формат                                   : HEVC
Формат/Информация                        : High Efficiency Video Coding
Профиль формата                          : Main 10@L5.1@High
HDR_Format                     : SMPTE ST 2094 App 4, Version 1, HDR10+ Profile A compatible
Идентификатор кодека                     : V_MPEGH/ISO/HEVC
Продолжительность                        : 2 ч. 1 м.
Битрейт                                  : 41,4 Мбит/сек
Ширина                                   : 3840 пикселей
Высота                                   : 2160 пикселей
Соотношение сторон                       : 16:9
Режим частоты кадров                     : Постоянный
Частота кадров                           : 23,976 (24000/1001) кадра/сек
Цветовое пространство                    : YUV
Субдискретизация насыщенности            : 4:2:0 (Type 2)
Битовая глубина                          : 10 бит
Бит/(Пиксели*Кадры)                      : 0.208
Размер потока                            : 35,2 Гбайт (84%)
Заголовок                                : UHD.BDRemux.2160p.HEVC.HDR
Язык                                     : Russian
Default                                  : Да
Forced                                   : Нет
Цветовой диапазон                        : Limited
Основные цвета                           : BT.2020
Характеристики трансфера                 : PQ
Коэффициенты матрицы                     : BT.2020 non-constant
MasteringDisplay_ColorPrimaries          : Display P3
MasteringDisplay_Luminance               : min: 0.0001 cd/m2, max: 1000 cd/m2
MaxCLL                                   : 182 cd/m2
MaxFALL                                  : 63 cd/m2

Аудио #1
Идентификатор                            : 2
Формат                                   : DTS
Формат/Информация                        : Digital Theater Systems
Идентификатор кодека                     : A_DTS
Продолжительность                        : 2 ч. 1 м.
Вид битрейта                             : Постоянный
Битрейт                                  : 768 Кбит/сек
Каналы                                   : 6 каналов
ChannelLayout                            : C L R Ls Rs LFE
Частота                                  : 48,0 КГц
Частота кадров                           : 93,750 кадра/сек (512 SPF)
Битовая глубина                          : 24 бит
Метод сжатия                             : С потерями
Размер потока                            : 670 Мбайт (2%)
Заголовок                                : Dub [License]
Язык                                     : Russian
Default                                  : Да
Forced                                   : Да

Аудио #2
Идентификатор                            : 3
Формат                                   : AC-3
Формат/Информация                        : Audio Coding 3
Коммерческое название                    : Dolby Digital
Идентификатор кодека                     : A_AC3
Продолжительность                        : 2 ч. 1 м.
Вид битрейта                             : Постоянный
Битрейт                                  : 448 Кбит/сек
Каналы                                   : 6 каналов
ChannelLayout                            : L R C LFE Ls Rs
Частота                                  : 48,0 КГц
Частота кадров                           : 31,250 кадров/сек (1536 SPF)
Битовая глубина                          : 16 бит
Метод сжатия                             : С потерями
Размер потока                            : 391 Мбайт (1%)
Заголовок                                : Dub [License]
Язык                                     : Russian
ServiceKind                      : Complete Main
Default                                  : Нет
Forced                                   : Нет

Аудио #3
Идентификатор                            : 4
Формат                                   : AC-3
Формат/Информация                        : Audio Coding 3
Коммерческое название                    : Dolby Digital
Идентификатор кодека                     : A_AC3
Продолжительность                        : 2 ч. 1 м.
Вид битрейта                             : Постоянный
Битрейт                                  : 192 Кбит/сек
Каналы                                   : 2 канала
ChannelLayout                            : L R
Частота                                  : 48,0 КГц
Частота кадров                           : 31,250 кадров/сек (1536 SPF)
Битовая глубина                          : 16 бит
Метод сжатия                             : С потерями
Размер потока                            : 167 Мбайт (0%)
Заголовок                                : MVO [СВ Студия]
Язык                                     : Russian
ServiceKind                   : Complete Main
Default                                  : Нет
Forced                                   : Нет

Аудио #4
Идентификатор                            : 5
Формат                                   : AC-3
Формат/Информация                        : Audio Coding 3
Коммерческое название                    : Dolby Digital
Идентификатор кодека                     : A_AC3
Продолжительность                        : 2 ч. 1 м.
Вид битрейта                             : Постоянный
Битрейт                                  : 192 Кбит/сек
Каналы                                   : 2 канала
ChannelLayout                            : L R
Частота                                  : 48,0 КГц
Частота кадров                           : 31,250 кадров/сек (1536 SPF)
Битовая глубина                          : 16 бит
Метод сжатия                             : С потерями
Размер потока                            : 167 Мбайт (0%)
Заголовок                                : MVO [HDRezka Studio]
Язык                                     : Russian
ServiceKind                       : Complete Main
Default                                  : Нет
Forced                                   : Нет

Аудио #5
Идентификатор                            : 6
Формат                                   : AC-3
Формат/Информация                        : Audio Coding 3
Коммерческое название                    : Dolby Digital
Идентификатор кодека                     : A_AC3
Продолжительность                        : 2 ч. 1 м.
Вид битрейта                             : Постоянный
Битрейт                                  : 448 Кбит/сек
Каналы                                   : 6 каналов
ChannelLayout                            : L R C LFE Ls Rs
Частота                                  : 48,0 КГц
Частота кадров                           : 31,250 кадров/сек (1536 SPF)
Битовая глубина                          : 16 бит
Метод сжатия                             : С потерями
Размер потока                            : 391 Мбайт (1%)
Заголовок                                : Dub [License]
Язык                                     : Ukrainian
ServiceKind                     : Complete Main
Default                                  : Нет
Forced                                   : Нет

Аудио #6
Идентификатор                            : 7
Формат                                   : MLP FBA 16-ch
Формат/Информация                        : Meridian Lossless Packing FBA with 16-channel presentation
Коммерческое название                    : Dolby TrueHD with Dolby Atmos
Идентификатор кодека                     : A_TRUEHD
Продолжительность                        : 2 ч. 1 м.
Вид битрейта                             : Переменный
Битрейт                                  : 5013 Кбит/сек
Каналы                                   : 8 каналов
ChannelLayout                            : L R C LFE Ls Rs Lb Rb
Частота                                  : 48,0 КГц
Частота кадров                           : 1200,000 кадров/сек (40 SPF)
Метод сжатия                             : Без потерь
Размер потока                            : 4,30 Гбайт (10%)
Заголовок                                : Original
Язык                                     : English
Default                                  : Нет
Forced                                   : Нет
NumberOfDynamicObjects                   : 13
BedChannelCount                : 1 канал
BedChannelConfiguration                  : LFE

Аудио #7
Идентификатор                            : 8
Формат                                   : AC-3
Формат/Информация                        : Audio Coding 3
Коммерческое название                    : Dolby Digital
Идентификатор кодека                     : A_AC3
Продолжительность                        : 2 ч. 1 м.
Вид битрейта                             : Постоянный
Битрейт                                  : 640 Кбит/сек
Каналы                                   : 6 каналов
ChannelLayout                            : L R C LFE Ls Rs
Частота                                  : 48,0 КГц
Частота кадров                           : 31,250 кадров/сек (1536 SPF)
Битовая глубина                          : 16 бит
Метод сжатия                             : С потерями
Размер потока                            : 558 Мбайт (1%)
Заголовок                                : Original, AC3 Core
Язык                                     : English
ServiceKind                      : Complete Main
Default                                  : Нет
Forced                                   : Нет

Текст #1
Идентификатор                            : 9
Формат                                   : UTF-8
Идентификатор кодека                     : S_TEXT/UTF8
Идентификатор кодека/Информация          : UTF-8 Plain Text
Продолжительность                        : 2 с. 544 мс.
Битрейт                                  : 251 бит/сек
ElementCount                             : 1
Размер потока                            : 80,0 байт (0%)
Заголовок                                : Forced
Язык                                     : Russian
Default                                  : Да
Forced                                   : Да

Текст #2
Идентификатор                            : 10
Формат                                   : UTF-8
Идентификатор кодека                     : S_TEXT/UTF8
Идентификатор кодека/Информация          : UTF-8 Plain Text
Продолжительность                        : 2 ч. 1 м.
Битрейт                                  : 50 бит/сек
ElementCount                             : 1052
Размер потока                            : 44,9 Кбайт (0%)
Заголовок                                : Full [License]
Язык                                     : Russian
Default                                  : Нет
Forced                                   : Нет

Текст #3
Идентификатор                            : 11
Формат                                   : UTF-8
Идентификатор кодека                     : S_TEXT/UTF8
Идентификатор кодека/Информация          : UTF-8 Plain Text
Продолжительность                        : 1 ч. 56 м.
Битрейт                                  : 64 бит/сек
ElementCount                             : 1318
Размер потока                            : 55,4 Кбайт (0%)
Заголовок                                : Full [FOCS]
Язык                                     : Russian
Default                                  : Нет
Forced                                   : Нет

Текст #4
Идентификатор                            : 12
Формат                                   : UTF-8
Идентификатор кодека                     : S_TEXT/UTF8
Идентификатор кодека/Информация          : UTF-8 Plain Text
Продолжительность                        : 2 ч. 1 м.
Битрейт                                  : 48 бит/сек
ElementCount                             : 1254
Размер потока                            : 43,4 Кбайт (0%)
Заголовок                                : Full [License]
Язык                                     : Ukrainian
Default                                  : Нет
Forced                                   : Нет

Текст #5
Идентификатор                            : 13
Формат                                   : UTF-8
Идентификатор кодека                     : S_TEXT/UTF8
Идентификатор кодека/Информация          : UTF-8 Plain Text
Продолжительность                        : 1 ч. 55 м.
Битрейт                                  : 41 бит/сек
ElementCount                             : 1347
Размер потока                            : 34,9 Кбайт (0%)
Заголовок                                : Full
Язык                                     : English
Default                                  : Нет
Forced                                   : Нет

Текст #6
Идентификатор                            : 14
Формат                                   : UTF-8
Идентификатор кодека                     : S_TEXT/UTF8
Идентификатор кодека/Информация          : UTF-8 Plain Text
Продолжительность                        : 1 ч. 56 м.
Битрейт                                  : 46 бит/сек
ElementCount                             : 1590
Размер потока                            : 39,5 Кбайт (0%)
Заголовок                                : SDH
Язык                                     : English
Default                                  : Нет
Forced                                   : Нет

Меню
00:00:00.000                             : ru:00:00:00.000
00:03:28.625                             : ru:00:03:28.625
00:07:51.680                             : ru:00:07:51.680
00:10:07.982                             : ru:00:10:07.982
00:13:06.703                             : ru:00:13:06.703
00:15:06.739                             : ru:00:15:06.739
00:18:04.542                             : ru:00:18:04.542
00:22:58.711                             : ru:00:22:58.711
00:25:35.325                             : ru:00:25:35.325
00:31:40.899                             : ru:00:31:40.899
00:33:29.216                             : ru:00:33:29.216
00:36:32.816                             : ru:00:36:32.816
00:38:30.892                             : ru:00:38:30.892
00:42:05.481                             : ru:00:42:05.481
00:45:58.214                             : ru:00:45:58.214
00:48:31.450                             : ru:00:48:31.450
00:52:57.007                             : ru:00:52:57.007
00:55:14.353                             : ru:00:55:14.353
01:00:39.761                             : ru:01:00:39.761
01:02:56.564                             : ru:01:02:56.564
01:05:16.788                             : ru:01:05:16.788
01:10:50.496                             : ru:01:10:50.496
01:13:37.288                             : ru:01:13:37.288
01:16:35.216                             : ru:01:16:35.216
01:18:52.227                             : ru:01:18:52.227
01:22:48.297                             : ru:01:22:48.297
01:24:55.340                             : ru:01:24:55.340
01:28:25.217                             : ru:01:28:25.217
01:33:18.551                             : ru:01:33:18.551
01:36:08.763                             : ru:01:36:08.763
01:41:54.692                             : ru:01:41:54.692
01:45:23.442                             : ru:01:45:23.442
01:48:16.490                             : ru:01:48:16.490
01:51:43.655                             : ru:01:51:43.655
01:54:43.668                             : ru:01:54:43.668
01:56:51.504                             : ru:01:56:51.504




Скриншоты:
[+] Всего файлов в раздаче - 1:
Alita.Battle.Angel.2019.Lic.LOCAL.UHD.BDRemux.2160p.HEVC.HDR.IVA(RUS.UKR.ENG).ExKinoRay.mkv41.88 GB

Показать еще раздачи по запросу алита:
2019-08-11 U Алита: Боевой ангел / Alita: Battle Angel (2019) UHD BDRip-HEVC 1440p | HDR | D | Локализованная версия | Лицензия 8.90 GB ↑ 28 ↓ 18
2019-08-11 U Алита: Боевой ангел / Alita: Battle Angel (2019) BDRip от MegaPeer | Локализованная версия | Лицензия 748.09 MB ↑ 30 ↓ 6
2019-07-25 U Алита: Боевой ангел / Alita: Battle Angel (2019) BDRip 1080p | 60 fps | Локализованная версия | D, P | Лицензия 8.55 GB ↑ 47 ↓ 52
2019-07-24 U Алита: Боевой ангел / Alita: Battle Angel (2019) WEB-DLRip-HEVC 720p | D | Open Matte 3.14 GB ↑ 26 ↓ 5
2019-07-20 U Алита: Боевой ангел / Alita: Battle Angel (2019) WEB-DLRip от Scarabey | Лицензия | Open Matte 1.45 GB ↑ 74 ↓ 16
2019-07-19 U Алита: Боевой ангел / Alita: Battle Angel (2019) BDRip 720p от Scarabey | Лицензия 6.06 GB ↑ 92 ↓ 70
2019-07-18 U Алита: Боевой ангел / Alita: Battle Angel (2019) BDRip от Twister & ExKinoRay | Локализованная версия | Лицензия 2.18 GB ↑ 62 ↓ 29

Отзывы
Зарегистрируйтесь чтобы добавить комментарий.
Обратная связь
Copyleft ©