↑↓Torrent.by
Поиск
Логин: Регистрация
Пароль: Восстановить пароль

Дар (2018) WEB-DLRip | iTunes

Скачать dar-2018-web-dlrip-itunes.torrent
U Магнитная ссылка Размер: 1.46 GB Раздают: 386 Качают: 132 Добавлен: 2019-07-17 07:36:24
Дар (2018) WEB-DLRip | iTunes

Название: Дар
Год выпуска: 2018
Жанр:  Комедия
Режиссер: Михаил Кукушкин
В ролях: Алексей Колубков, Юрий Оборотов, Владимир Карпук, Валерия Дергилева, Светлана Бобкина, Евгений Зеленов, Ульяна Глушкова, Алёна Константинова, Виктория Пятакина, Дмитрий Пугач

Описание: Толя Сидоров — простой рабочий предпенсионного возраста из российской глубинки — неожиданно открывает у себя талант художника и становится сенсацией в мире современного искусства. А все это из-за того, что создание «шедевров» происходит в очень интимный момент… Слава о необычном художнике разлетается по Интернету, и на выставку уринальной живописи Анатолия приезжают ценители даже из Москвы. Как в русской сказке, на героя чудесным образом сваливается признание и деньги, но Толя предпочитает сохранять инкогнито, пытаясь понять, а творчество ли это. Да и мужики с завода засмеют, если узнают.

Страна: Россия
Студия: АРТЛАЙТ, Инвада фильм
Продолжительность: 01:34:50
Язык: Русский | iTunes

Файл
Качество: WEB-DLRip
Формат: AVI
Видео: 704x384 (1.83:1), 24.000 fps, XviD build 73 ~1806 kbps avg, 0.28 bit/pixel
Аудио: 48 kHz, AC3 Dolby Digital, 3/2 (L,C,R,l,r) + LFE ch, ~384 kbps - iTunes
Субтитры: Нет


[+] MediaInfo
Формат                                   : AVI
Формат/Информация                        : Audio Video Interleave
Размер файла                             : 1,46 Гбайт
Продолжительность                        : 1 ч. 34 м.
Общий поток                              : 2199 Кбит/сек
Название фильма                          : Дар_2018_WEB-DLRip
Программа кодирования                    : VirtualDubMod 1.5.10.3 (build 2550/release)
Авторское право                          : порошков

Видео
Идентификатор                            : 0
Формат                                   : MPEG-4 Visual
Профиль формата                          : Advanced Simple@L5
Настройки формата                        : BVOP1 / Custom Matrix
Параметр BVOP формата                    : 1
Параметр QPel формата                    : Нет
Параметр GMC формата                     : Без точки перехода
Параметр матрицы формата                 : Выборочная
Идентификатор кодека                     : XVID
Идентификатор кодека/Подсказка           : XviD
Продолжительность                        : 1 ч. 34 м.
Битрейт                                  : 1806 Кбит/сек
Ширина                                   : 704 пикселя
Высота                                   : 384 пикселя
Соотношение сторон                       : 1,85:1
Частота кадров                           : 24,000 кадра/сек
Цветовое пространство                    : YUV
Субдискретизация насыщенности            : 4:2:0
Битовая глубина                          : 8 бит
Тип развёртки                            : Прогрессивная
Метод сжатия                             : С потерями
Бит/(Пиксели*Кадры)                      : 0.278
Размер потока                            : 1,20 Гбайт (82%)
Библиотека кодирования                   : XviD 73

Аудио
Идентификатор                            : 1
Формат                                   : AC-3
Формат/Информация                        : Audio Coding 3
Коммерческое название                    : Dolby Digital
Идентификатор кодека                     : 2000
Продолжительность                        : 1 ч. 34 м.
Вид битрейта                             : Постоянный
Битрейт                                  : 384 Кбит/сек
Каналы                                   : 6 каналов
ChannelLayout                            : L R C LFE Ls Rs
Частота                                  : 48,0 КГц
Частота кадров                           : 31,250 кадров/сек (1536 SPF)
Битовая глубина                          : 16 бит
Метод сжатия                             : С потерями
Размер потока                            : 261 Мбайт (17%)
Выравнивание                             : Разделение по промежуткам
Продолжительность промежутка             : 42  мс. (1,00 видеокадр)
Время предзагрузки промежутка            : 500  мс.



Скриншоты:
[+] Всего файлов в раздаче - 1:
Дар_2018_WEB-DLRip.avi1.46 GB

Показать еще раздачи по запросу dlrip:
Вчера U Проклятие «Мэри» / Mary (2019) WEB-DLRip | iTunes 742.73 MB ↑ 119 ↓ 53
Вчера U Ивановы-Ивановы [04х01-02 из 21] (2019) WEB-DLRip от Files-x 653.77 MB ↑ 163 ↓ 41
Вчера U Падение ангела / Angel Has Fallen (2019) WEB-DLRip-AVC | iTunes 742.09 MB ↑ 179 ↓ 85
Вчера U Падение ангела / Angel Has Fallen (2019) WEB-DLRip от Portablius | iTunes 753.89 MB ↑ 227 ↓ 73
Вчера U Падение ангела / Angel Has Fallen (2019) WEB-DLRip-AVC от ExKinoRay | iTunes 2.15 GB ↑ 477 ↓ 159
Вчера U Рик и Морти / Rick and Morty [04х01 из 10] (2019) WEB-DLRip 1080p | IdeaFilm 1.10 GB ↑ 25 ↓ 0
Вчера U Бесстыжие / Бесстыдники / Shameless (US) [10x01 из 12] (2019) WEB-DLRip | AlexFilm 814.20 MB ↑ 36 ↓ 7

Отзывы
Зарегистрируйтесь чтобы добавить комментарий.
Обратная связь
Copyleft ©