↑↓Torrent.by
Поиск
Логин: Регистрация
Пароль: Восстановить пароль
Загрузка...

Нулевой километр (2007) DVDRip-AVC

Скачать nulevoy-kilometr-2007-dvdrip-avc.torrent
U Магнитная ссылка Размер: 2.13 GB Раздают: 23 Качают: 2 Добавлен: 2019-07-17 07:38:18
Нулевой километр (2007) DVDRip-AVC

Название: Нулевой километр
Оригинальное название: Нулевой километр
Год выхода: 2007
Жанр:  Криминал, мелодрама, триллер
Режиссер: Павел Санаев
В ролях: Иван Жидков, Константин Крюков, Александр Лымарев, Ольга Полякова, Светлана Ходченкова, Дмитрий Нагиев, Елена Санаева, Федор Бондарчук, Андрей Малахов

О фильме:
Современная история о двух молодых ребятах, которые приехали «покорять Москву». Целеустремленный Костя мечтает стать клипмейкером. Пронырливый Олег видит свой успех в солидном материальном достатке.

Оба получают шанс воплотить свои мечты в реальность, но любовь с первого взгляда, вспыхнувшая между Костей и очаровательной молодой балериной Алиной, вытрясает из шкафов столько скелетов, что легкая мелодрама превращается в триллер с элементами боевика.

Предать и простить предательство, стать невольным убийцей и спастись от верной смерти, добиться главного в жизни шанса, и принести этот шанс в жертву любви — вот ставки по которым придется играть нашим героям.

Выпущено: Россия
Продолжительность: 01:26:15
Перевод: Оригинал
Субтитры: Нет

Файл
Формат: MKV
Качество: DVDRip-AVC
Видео: 712=>1012x544 at 25 fps, x264, ~2828 kbps, 0.292 bit/pixel
Аудио #1: AC3, 6 ch, ~448 kbps - | Русский | -
Аудио #2: AC3, 2 ch, ~192 kbps - | Русский | -

***Релиз от: -=DoMiNo=-


[+] M/I
x264 info: frame I:1288  Avg QP:18.39  size: 51474
x264 info: frame P:26661 Avg QP:19.31  size: 26623
x264 info: frame B:101430 Avg QP:21.20  size: 10802
x264 info: consecutive B-frames:  1.8%  1.6%  5.4% 19.6% 20.3% 42.7%  5.7%  1.6%  0.9%  0.2%  0.1%

General
Unique ID                   : 198050791299957641353017059479104843665 (0x94FF31E812EECE53E33A6E43549CEF91)
Complete name               : Нулевой километр.(2007).DVDRip-AVC.[-=DoMiNo=-].mkv
Format                      : Matroska
Format version              : Version 4
File size                   : 2.13 GiB
Duration                    : 1 h 26 min
Overall bit rate            : 3 539 kb/s
Movie name                  : Нулевой километр
Deion                 : Современная история о двух молодых ребятах, которые приехали «покорять Москву». Целеустремленный Костя мечтает стать клипмейкером. Пронырливый Олег видит свой успех в солидном материальном достатке. Оба получают шанс воплотить свои мечты в реальность, но любовь с первого взгляда, вспыхнувшая между Костей и очаровательной молодой балериной Алиной, вытрясает из шкафов столько скелетов, что легкая мелодрама превращается в триллер с элементами боевика. Предать и простить предательство, стать невольным убийцей и спастись от верной смерти, добиться главного в жизни шанса, и принести этот шанс в жертву любви — вот ставки по которым придется играть нашим героям.
Attachments                 : poster / poster
ACTORS                      : Aleksandr Lymarev, Ivan Zhidkov, Svetlana Khodchenkova, Konstantin Kryukov, Dmitriy Nagiev, Yelena Sanayeva, Yuriy Tsurilo, Mikhail Politseymako, Sergey Druzyak, Maksim Klyanov, Elena Arosyeva
COUNTRY                     : Russia
DIRECTOR                    : Pavel Sanaev
GENRE                       : Боевик, Криминал, Мелодрама

Video
ID                          : 1
Format                      : AVC
Format/Info                 : Advanced Video Codec
Format profile              : High@L4.1
Format settings             : CABAC / 12 Ref Frames
Format settings, CABAC      : Yes
Format settings, Reference  : 12 frames
Codec ID                    : V_MPEG4/ISO/AVC
Duration                    : 1 h 26 min
Bit rate                    : 2 828 kb/s
Width                       : 712 pixels
Height                      : 544 pixels
Display aspect ratio        : 1.85:1
Frame rate mode             : Constant
Frame rate                  : 25.000 FPS
Color space                 : YUV
Chroma subsampling          : 4:2:0
Bit depth                   : 8 bits
Scan type                   : Progressive
Bits/(Pixel*Frame)          : 0.292
Stream size                 : 1.70 GiB (80%)
Title                       : RIP_BY_-=DoMiNo=-
Writing library             : x264 core 157 r2958 57baac4
Encoding settings           : cabac=1 / ref=12 / deblock=1:-2:-2 / analyse=0x3:0x133 / me=umh / subme=11 / psy=1 / psy_rd=1.00:0.15 / mixed_ref=1 / me_range=48 / chroma_me=1 / trellis=2 / 8x8dct=1 / cqm=0 / deadzone=21,11 / fast_pskip=1 / chroma_qp_offset=-3 / threads=6 / lookahead_threads=1 / sliced_threads=0 / nr=0 / decimate=1 / interlaced=0 / bluray_compat=0 / constrained_intra=0 / bframes=10 / b_pyramid=2 / b_adapt=2 / b_bias=0 / direct=1 / weightb=1 / open_gop=0 / weightp=2 / keyint=250 / keyint_min=25 / scenecut=40 / intra_refresh=0 / rc_lookahead=60 / rc=crf / mbtree=0 / crf=18.0 / qcomp=0.70 / qpmin=16 / qpmax=69 / qpstep=4 / vbv_maxrate=50000 / vbv_bufsize=62500 / crf_max=0.0 / nal_hrd=none / filler=0 / ip_ratio=1.40 / pb_ratio=1.30 / aq=1:0.80
Default                     : Yes
Forced                      : No
Color range                 : Limited

Audio #1
ID                          : 2
Format                      : AC-3
Format/Info                 : Audio Coding 3
Commercial name             : Dolby Digital
Codec ID                    : A_AC3
Duration                    : 1 h 26 min
Bit rate mode               : Constant
Bit rate                    : 448 kb/s
Channel(s)                  : 6 channels
Channel layout              : L R C LFE Ls Rs
Sampling rate               : 48.0 kHz
Frame rate                  : 31.250 FPS (1536 SPF)
Bit depth                   : 16 bits
Compression mode            : Lossy
Stream size                 : 276 MiB (13%)
Language                    : Russian
Service kind                : Complete Main
Default                     : Yes
Forced                      : No

Audio #2
ID                          : 3
Format                      : AC-3
Format/Info                 : Audio Coding 3
Commercial name             : Dolby Digital
Codec ID                    : A_AC3
Duration                    : 1 h 26 min
Bit rate mode               : Constant
Bit rate                    : 192 kb/s
Channel(s)                  : 2 channels
Channel layout              : L R
Sampling rate               : 48.0 kHz
Frame rate                  : 31.250 FPS (1536 SPF)
Bit depth                   : 16 bits
Compression mode            : Lossy
Stream size                 : 118 MiB (5%)
Language                    : Russian
Service kind                : Complete Main
Default                     : No
Forced                      : No

Menu
00:00:00.000                : :Глава 0
00:05:48.160                : :Глава 1
00:13:28.640                : :Глава 2
00:19:43.920                : :Глава 3
00:27:31.440                : :Глава 4
00:34:29.480                : :Глава 5
00:45:04.320                : :Глава 6
00:55:04.120                : :Глава 7
01:01:49.320                : :Глава 8
01:07:50.040                : :Глава 9
01:16:51.760                : :Глава 10
01:22:21.840                : :Глава 11
01:26:14.640                : :Глава 12



Скриншоты:
[+] Всего файлов в раздаче - 1:
Нулевой километр.(2007).DVDRip-AVC.[-=DoMiNo=-].mkv2.13 GB

Похожие раздачи по запросу - нулевой:
2019-07-14 U Нулевой километр (2007) DVDRip от Scarabey 1.44 GB ↑ 44 ↓ 13

Отзывы
Зарегистрируйтесь чтобы добавить комментарий.
Обратная связь
Copyleft ©