↑↓Torrent.by
Поиск
Логин: Регистрация
Пароль: Восстановить пароль
Загрузка...

Укротители велосипедов (1963) SATRip-AVC от New-Team

Скачать ukrotiteli-velosipedov-1963-satrip-avc-ot-new-team.torrent
U Магнитная ссылка Размер: 744.29 MB Раздают: 35 Качают: 4 Добавлен: 2019-07-18 07:24:24
Укротители велосипедов (1963) SATRip-AVC от New-Team

Страна: СССР
Производство: Таллинфильм

Жанр:  комедия, спорт
Год выпуска: 1963
Продолжительность: 01:09:48

Перевод: Не требуется
Cубтитры: нет
Оригинальная аудиодорожка: русский

Режиссер: Юлий Кун

В ролях:
Людмила Гурченко, Олег Борисов, Эдуардс Павулс, Рейн Арен, Сергей Мартинсон, Рина Зелёная, Алексей Смирнов, Хуго Лаур, Эльвира Лоссман, Эйнари Коппель, Олга Круминя, Григорий Шпигель, Александр Бениаминов, Олег Сапожнин, Владлен Паулус, Улдис Пуцитис...
Об актёрах подробней

Описание:
Учитель Роберт и ветеринарный врач Лео — соперники в любви. Предмет их обожания — изобретательница новой модели велосипеда Рита. Чтобы завоевать сердце красавицы, мужчины принимают участие в велогонке, во время которой с ними происходят забавные приключения.

[url=http://www.imdb.com/title/tt0314813/" target="_blank">


[+] MediaInfo

Общее
Полное имя                               : Ukrotiteli.velosipedov.1963.SATRip-AVC_[New-team]_by_AVP_Studio.mkv
Формат                                   : Matroska
Версия формата                           : Version 2
Размер файла                             : 744 Мбайт
Продолжительность                        : 1 ч. 9 м.
Общий поток                              : 1491 Кбит/сек
Дата кодирования                         : UTC 2019-07-15 12:02:14
Программа кодирования                    : mkvmerge v6.1.0 ('Old Devil') built on Mar  4 2013 09:10:42
Библиотека кодирования                   : libebml v1.3.0 + libmatroska v1.4.0

Видео
Идентификатор                            : 1
Формат                                   : AVC
Формат/Информация                        : Advanced Video Codec
Профиль формата                          : High@L4.1
Настройки формата                        : CABAC / 10 Ref Frames
Параметр CABAC формата                   : Да
Параметр RefFrames формата               : 10 кадров
Идентификатор кодека                     : V_MPEG4/ISO/AVC
Продолжительность                        : 1 ч. 9 м.
Битрейт                                  : 1297 Кбит/сек
Ширина                                   : 696 пикселей
Высота                                   : 570 пикселей
Соотношение сторон                       : 4:3
Режим частоты кадров                     : Постоянный
Частота кадров                           : 25,000 кадров/сек
Цветовое пространство                    : YUV
Субдискретизация насыщенности            : 4:2:0
Битовая глубина                          : 8 бит
Тип развёртки                            : Прогрессивная
Бит/(Пиксели*Кадры)                      : 0.131
Размер потока                            : 634 Мбайт (85%)
Библиотека кодирования                   : x264 core 157 r2932 303c484
Настройки программы                      : cabac=1 / ref=10 / deblock=1:-2:-1 / analyse=0x3:0x113 / me=umh / subme=10 / psy=1 / psy_rd=1.00:0.00 / mixed_ref=1 / me_range=32 / chroma_me=1 / trellis=2 / 8x8dct=1 / cqm=0 / deadzone=21,11 / fast_pskip=1 / chroma_qp_offset=-2 / threads=6 / lookahead_threads=1 / sliced_threads=0 / nr=0 / decimate=0 / interlaced=0 / bluray_compat=0 / constrained_intra=0 / bframes=8 / b_pyramid=2 / b_adapt=2 / b_bias=0 / direct=3 / weightb=1 / open_gop=0 / weightp=2 / keyint=250 / keyint_min=25 / scenecut=40 / intra_refresh=0 / rc=2pass / mbtree=0 / bitrate=1297 / ratetol=1.0 / qcomp=0.60 / qpmin=0 / qpmax=69 / qpstep=4 / cplxblur=20.0 / qblur=0.5 / ip_ratio=1.40 / pb_ratio=1.30 / aq=1:1.00
Default                                  : Да
Forced                                   : Нет

Аудио
Идентификатор                            : 2
Формат                                   : AC-3
Формат/Информация                        : Audio Coding 3
Коммерческое название                    : Dolby Digital
Идентификатор кодека                     : A_AC3
Продолжительность                        : 1 ч. 9 м.
Вид битрейта                             : Постоянный
Битрейт                                  : 192 Кбит/сек
Каналы                                   : 2 канала
ChannelLayout                            : L R
Частота                                  : 48,0 КГц
Частота кадров                           : 31,250 кадров/сек (1536 SPF)
Битовая глубина                          : 16 бит
Метод сжатия                             : С потерями
Размер потока                            : 95,9 Мбайт (13%)
Default                                  : Да
Forced                                   : Нет



Скриншоты:
[+] Всего файлов в раздаче - 1:
Ukrotiteli.velosipedov.1963.SATRip-AVC_[New-team]_by_AVP_Studio.mkv744.29 MB

Отзывы
Зарегистрируйтесь чтобы добавить комментарий.
Обратная связь
Copyleft ©