↑↓Torrent.by
Поиск
Логин: Регистрация
Пароль: Восстановить пароль
Загрузка...

Игра (2019) WEB-DLRip | iTunes

Скачать igra-2019-web-dlrip-itunes.torrent
U Магнитная ссылка Размер: 1.46 GB Раздают: 1309 Качают: 385 Добавлен: 2019-07-18 16:55:31
Игра (2019) WEB-DLRip | iTunes

Игра

Страна: Россия
Производство: Беларусьфильм, Мавр
Год выпуска: 2019
Жанр:  комедия, триллер
Продолжительность: 01:43:09

Режиссер: Дмитрий Астрахан
В ролях: Виктор Васильев, Анар Халилов, Эльвира Болгова, Наталья Бергер, Олег Васильков, Сергей Чугай, Михаил Зуй, Георгий Малявский, Павел Воля

Описание: Молодой бизнесмен Юрий Платонов с лёгкостью достиг всего, о чём можно было мечтать: крупный издательский дом, положение в обществе, красавица-жена и даже личный самолёт. Он успешен во всём, за что ни берётся — так не бывает! Похоже, что его жизнь — кем-то лихо срежиссированный фейк…

Перевод: не требуется (оригинал) | iTunes
Субтитры: нет

Качество: WEB-DLRip
Формат: AVI
Видео кодек: XviD
Аудио кодек: АС3
Видео: 704x288 (2.40:1), 23.976 fps, XviD build 73 ~1 629 kbps avg
Аудио: 48.0 kHz, AC3 Dolby Digital, 3/2 (L,C,R,l,r) + LFE ch, ~384 kbps

Дата премьеры (РФ): 6 июня 2019, «Каскад фильм»

Релиз от: порошков


[+] Media Info
General
Формат                                   : AVI
Формат/Информация                        : Audio Video Interleave
Размер файла                             : 1,46 Гбайт
Продолжительность                        : 1 ч. 43 м.
Общий поток                              : 2022 Кбит/сек
Название фильма                          : Игра_2018_WEB-DLRip
Программа кодирования                    : VirtualDubMod 1.5.10.3 | (build 2550/release)
Авторское право                          : порошков

Видео
Идентификатор                            : 0
Формат                                   : MPEG-4 Visual
Профиль формата                          : Advanced Simple@L5
Настройки формата                        : BVOP1 / Custom Matrix
Параметр BVOP формата                    : 1
Параметр QPel формата                    : Нет
Параметр GMC формата                     : Без точки перехода
Параметр матрицы формата                 : Выборочная
Идентификатор кодека                     : XVID
Идентификатор кодека/Подсказка           : XviD
Продолжительность                        : 1 ч. 43 м.
Битрейт                                  : 1629 Кбит/сек
Ширина                                   : 704 пикселя
Высота                                   : 288 пикселей
Соотношение сторон                       : 2,40:1
Частота кадров                           : 23,976 (24000/1001) кадра/сек
Цветовое пространство                    : YUV
Субдискретизация насыщенности            : 4:2:0
Битовая глубина                          : 8 бит
Тип развёртки                            : Прогрессивная
Метод сжатия                             : С потерями
Бит/(Пиксели*Кадры)                      : 0.335
Размер потока                            : 1,17 Гбайт (81%)
Библиотека кодирования                   : XviD 73

Аудио
Идентификатор                            : 1
Формат                                   : AC-3
Формат/Информация                        : Audio Coding 3
Коммерческое название                    : Dolby Digital
Идентификатор кодека                     : 2000
Продолжительность                        : 1 ч. 43 м.
Вид битрейта                             : Постоянный
Битрейт                                  : 384 Кбит/сек
Каналы                                   : 6 каналов
ChannelLayout                            : L R C LFE Ls Rs
Частота                                  : 48,0 КГц
Частота кадров                           : 31,250 кадров/сек (1536 SPF)
Битовая глубина                          : 16 бит
Метод сжатия                             : С потерями
Размер потока                            : 283 Мбайт (19%)
Выравнивание                             : Разделение по промежуткам
Продолжительность промежутка             : 42  мс. (1,00 видеокадр)
Время предзагрузки промежутка            : 500  мс.



Скриншоты:
[+] Всего файлов в раздаче - 1:
Игра_2018_WEB-DLRip.avi1.46 GB

Показать еще раздачи по запросу игра:
Сегодня U КВН-2019. Премьер лига. 1/4 финала. Игра вторая [18.08] (2019) SATRip 1.04 GB ↑ 243 ↓ 65
Вчера U Игра Ганнибала / Night Hunter / Nomis (2018) WEB-DLRip-AVC | HDRezka Studio 742.52 MB ↑ 80 ↓ 16
Вчера U Игра Ганнибала / Night Hunter / Nomis (2018) WEB-DLRip | КПК | P 398.13 MB ↑ 25 ↓ 8
2019-08-16 U Игра Ганнибала / Night Hunter / Nomis (2018) WEB-DL 1080p | HDRezka Studio 1К3.55 GB ↑ 1731 ↓ 597
2019-08-16 U Игра Ганнибала / Night Hunter / Nomis (2018) WEB-DLRip от ExKinoRay | HDRezka Studio 1.36 GB ↑ 1387 ↓ 454
2019-07-29 U КВН-2019. Премьер лига. 1/8 финала. Игра вторая [28.07] (2019) HDTV 1080i от GeneralFilm 5.99 GB ↑ 106 ↓ 18
2019-07-28 U КВН-2019. Премьер лига. 1/8 финала. Игра вторая [28.07] (2019) HDTVRip от GeneralFilm 961.09 MB ↑ 119 ↓ 31

Отзывы
Зарегистрируйтесь чтобы добавить комментарий.
Обратная связь
Copyleft ©