↑↓Torrent.by
Поиск
Логин: Регистрация
Пароль: Восстановить пароль
Загрузка...

Большой брат / Big Brother / Dai si hing (2018) BDRip 1080p от OlLanDGroup | HDRezka Studio

Скачать bolshoy-brat-big-brother-dai-si-hing-2018-bdrip-1080p-ot-ollandgroup-hdrezka-studio.torrent
U Магнитная ссылка Размер: 8.62 GB Раздают: 74 Качают: 37 Добавлен: 2019-07-18 16:56:28
Большой брат / Big Brother / Dai si hing (2018) BDRip 1080p от OlLanDGroup | HDRezka Studio

Название: Большой брат
Оригинальное название: Dai si hing ( Big Brother)
Год выпуска: 2018
Жанр:  Боевик, комедия
Выпущено: Гонконг, Bullet Films,Mega-Vision Pictures (MVP)
Режиссер: Кам Ка-Вай
В ролях: Донни Йен, Джо Чэнь, Кан Юй, Брахим Ачаббаке, Альфред Чун, Джей Дэй, Семиквавер Иафета

О фильме: Действие разворачивается в средней школе, переживающей кризис из-за неуспеваемости учеников. Генри Чен, он же Большой Брат, в прошлом мастер кунг-фу, вступает в должность учителя школы и быстро завоевывает доверие школьников благодаря своим нестандартным методам преподавания. Постепенно Генри удается подтянуть оценки учащихся, но вскоре возникает новая проблема, когда на школу нападает банда под руководством злобного предпринимателя, желающего отобрать землю учебного заведения. Однако Большой Брат и его ученики встают на защиту родной школы...

Качество: BDRip (1080p)
Видео: MPEG-4 AVC, 11392 Kбит/с, 1920x804, 24 кадр/с
Аудио: Русский (AC3, 2 ch, 192 Кбит/с), китайский (AC3, 6 ch, 640 Кбит/с)
Размер: 8.62 ГБ
Продолжительность: 01:41:07
Перевод: Профессиональный многоголосый
Субтитры: Русские (форс.), английские

Озвучивание - Профессиональное многоголосое (HDRezka Studio)
Сохранены оригинальные чаптеры как на Blu-Ray.

Релиз:  Rip by:


[+] x264

x264 [info]: frame I:1459  Avg QP:14.85  size:241263
x264 [info]: frame P:40900 Avg QP:18.13  size:101487
x264 [info]: frame B:103241 Avg QP:19.70  size: 39866
x264 [info]: consecutive B-frames:  6.4%  8.3% 16.7% 16.8%  9.0% 39.6%  2.0%  0.4%  0.3%  0.3%  0.2%
x264 [info]: mb I  I16..4: 15.5% 56.1% 28.4%
x264 [info]: mb P  I16..4:  3.1% 25.7%  3.3%  P16..4: 25.0% 27.1%  8.0%  1.3%  0.1%    skip: 6.4%
x264 [info]: mb B  I16..4:  0.5%  3.7%  0.4%  B16..8: 35.7% 24.2%  3.6%  direct: 6.7%  skip:25.1%  L0:43.6% L1:42.2% BI:14.1%
x264 [info]: 8x8 transform intra:78.2% inter:60.1%
x264 [info]: direct mvs  spatial:98.9% temporal:1.1%
x264 [info]: coded y,uvDC,uvAC intra: 82.6% 82.2% 63.6% inter: 29.8% 38.0% 18.4%
x264 [info]: i16 v,h,dc,p: 26% 14% 13% 47%
x264 [info]: i8 v,h,dc,ddl,ddr,vr,hd,vl,hu: 11%  9% 14%  9% 12% 11% 12% 11% 12%
x264 [info]: i4 v,h,dc,ddl,ddr,vr,hd,vl,hu: 33% 11% 14%  5%  8%  8%  7%  6%  7%
x264 [info]: i8c dc,h,v,p: 41% 23% 19% 17%
x264 [info]: Weighted P-Frames: Y:1.8% UV:0.5%
x264 [info]: ref P L0: 57.4% 11.9% 17.7%  6.7%  5.2%  1.1%  0.0%
x264 [info]: ref B L0: 85.1% 10.6%  3.4%  0.9%
x264 [info]: ref B L1: 95.4%  4.6%
x264 [info]: kb/s:11365.23



[+] Инфо-файл

Общее
Уникальный идентификатор                 : 235509073818770329364172521920742503274 (0xB12D65D29126A754B08C0A3CC9A3336A)
Полное имя                               : D:ЗагрузкиBig.Brother.2018.x264.BDRip.(1080p).OlLanDGroup.mkv
Формат                                   : Matroska
Версия формата                           : Version 4 / Version 2
Размер файла                             : 8,62 Гбайт
Продолжительность                        : 1 ч. 41 м.
Общий поток                              : 12,2 Мбит/сек
Название фильма                          : Большой брат.2018.Rip by: ollan
Дата кодирования                         : UTC 2019-07-18 03:40:46
Программа кодирования                    : mkvmerge v6.5.0 ('Isn't she lovely') built on Oct 20 2013 12:50:05
Библиотека кодирования                   : libebml v1.3.0 + libmatroska v1.4.1
Обложка                                  : Yes
Attachments                              : Cover -  Big.Brother.png

Видео
Идентификатор                            : 1
Формат                                   : AVC
Формат/Информация                        : Advanced Video Codec
Профиль формата                          : High@L4.1
Настройки формата                        : CABAC / 5 Ref Frames
Параметр CABAC формата                   : Да
Параметр ReFrames формата                : 5 кадров
Идентификатор кодека                     : V_MPEG4/ISO/AVC
Продолжительность                        : 1 ч. 41 м.
Битрейт                                  : 11,4 Мбит/сек
Ширина                                   : 1920 пикселей
Высота                                   : 804 пикселя
Соотношение сторон                       : 2,40:1
Режим частоты кадров                     : Постоянный
Частота кадров                           : 24,000 кадра/сек
Цветовое пространство                    : YUV
Субдискретизация насыщенности            : 4:2:0
Битовая глубина                          : 8 бит
Тип развёртки                            : Прогрессивная
Бит/(Пиксели*Кадры)                      : 0.307
Размер потока                            : 7,86 Гбайт (91%)
Библиотека кодирования                   : x264 core 146 r2538 121396c
Настройки программы                      : cabac=1 / ref=5 / deblock=1:-3:-3 / analyse=0x3:0x133 / me=umh / subme=11 / psy=1 / psy_rd=0.95:0.05 / mixed_ref=1 / me_range=64 / chroma_me=1 / trellis=2 / 8x8dct=1 / cqm=0 / deadzone=21,11 / fast_pskip=0 / chroma_qp_offset=-3 / threads=12 / lookahead_threads=3 / sliced_threads=0 / nr=0 / decimate=0 / interlaced=0 / bluray_compat=0 / constrained_intra=0 / bframes=10 / b_pyramid=2 / b_adapt=2 / b_bias=0 / direct=3 / weightb=1 / open_gop=0 / weightp=2 / keyint=240 / keyint_min=23 / scenecut=40 / intra_refresh=0 / rc_lookahead=40 / rc=2pass / mbtree=0 / bitrate=11392 / ratetol=1.0 / qcomp=0.60 / qpmin=0 / qpmax=69 / qpstep=4 / cplxblur=20.0 / qblur=0.5 / vbv_maxrate=50000 / vbv_bufsize=62500 / nal_hrd=none / filler=0 / ip_ratio=1.40 / pb_ratio=1.30 / aq=1:1.00
Язык                                     : English
Default                                  : Да
Forced                                   : Нет

Аудио #1
Идентификатор                            : 2
Формат                                   : AC-3
Формат/Информация                        : Audio Coding 3
Идентификатор кодека                     : A_AC3
Продолжительность                        : 1 ч. 41 м.
Вид битрейта                             : Постоянный
Битрейт                                  : 192 Кбит/сек
Каналы                                   : 2 канала
Расположение каналов                     : Front: L R
Частота                                  : 48,0 КГц
Частота кадров                           : 31,250 кадров/сек (1536 SPF)
Битовая глубина                          : 16 бит
Метод сжатия                             : С потерями
Размер потока                            : 139 Мбайт (2%)
Заголовок                                : HDRezka Studio
Язык                                     : Russian
Service kind                             : Complete Main
Default                                  : Да
Forced                                   : Нет

Аудио #2
Идентификатор                            : 3
Формат                                   : AC-3
Формат/Информация                        : Audio Coding 3
Идентификатор кодека                     : A_AC3
Продолжительность                        : 1 ч. 41 м.
Вид битрейта                             : Постоянный
Битрейт                                  : 640 Кбит/сек
Каналы                                   : 6 каналов
Расположение каналов                     : Front: L C R, Side: L R, LFE
Частота                                  : 48,0 КГц
Частота кадров                           : 31,250 кадров/сек (1536 SPF)
Битовая глубина                          : 16 бит
Метод сжатия                             : С потерями
Размер потока                            : 463 Мбайт (5%)
Язык                                     : Chinese
Service kind                             : Complete Main
Default                                  : Нет
Forced                                   : Нет

Текст #1
Идентификатор                            : 4
Формат                                   : UTF-8
Идентификатор кодека                     : S_TEXT/UTF8
Идентификатор кодека/Информация          : UTF-8 Plain Text
Заголовок                                : Forced
Язык                                     : Russian
Default                                  : Да
Forced                                   : Нет

Текст #2
Идентификатор                            : 5
Формат                                   : UTF-8
Идентификатор кодека                     : S_TEXT/UTF8
Идентификатор кодека/Информация          : UTF-8 Plain Text
Заголовок                                : Full
Язык                                     : English
Default                                  : Нет
Forced                                   : Нет

Меню
00:00:00.000                             : zh:Chapter 01
00:08:18.666                             : zh:Chapter 02
00:17:09.291                             : zh:Chapter 03
00:25:38.000                             : zh:Chapter 04
00:33:21.375                             : zh:Chapter 05
00:40:57.000                             : zh:Chapter 06
00:48:52.541                             : zh:Chapter 07
00:57:00.166                             : zh:Chapter 08
01:05:24.166                             : zh:Chapter 09
01:15:30.125                             : zh:Chapter 10
01:22:48.000                             : zh:Chapter 11
01:32:56.416                             : zh:Chapter 12
01:41:06.250                             : zh:Chapter 13




Скриншоты:
[+] Всего файлов в раздаче - 1:
Big.Brother.2018.x264.BDRip.(1080p).OlLanDGroup.mkv8.62 GB

Показать еще раздачи по запросу большой:
2019-07-27 U Большой хак / The Great Hack (2019) WEB-DLRip от ExKinoRay | P 1.45 GB ↑ 418 ↓ 97
2019-07-19 U Большой брат / Big Brother / Dai si hing (2018) BDRip-AVC от OlLanDGroup | P 1.40 GB ↑ 51 ↓ 14
2019-07-18 U Большой брат / Big Brother / Dai si hing (2018) BDRip от MegaPeer | HDRezka Studio 1.46 GB ↑ 222 ↓ 51
2019-05-06 U Большой артист [01-02 из 02] (2019) WEB-DLRip от Files-x 2.75 GB ↑ 196 ↓ 58
2019-04-30 U Большой злой лис и другие сказки / Le grand méchant renard et autres contes... (2017) BDRip | SDI Media 1.46 GB ↑ 137 ↓ 27
2019-04-29 U Большой кошачий побег / Mao yu tao hua yuan / Cats & Peachtopia (2018) WEB-DLRip от MegaPeer | iTunes 1.46 GB ↑ 229 ↓ 60
2019-04-01 U В погоне за Бонни и Клайдом / Разбойники с большой дороги / The Highwaymen (2019) WEB-DLRip от Scarabey | АРК-ТВ Studio & VSI International 2.17 GB ↑ 103 ↓ 32

Отзывы
Зарегистрируйтесь чтобы добавить комментарий.
Обратная связь
Copyleft ©