↑↓Torrent.by
Поиск
Логин: Регистрация
Пароль: Восстановить пароль
Загрузка...

Велотачки / Bikes (2018) WEB-DLRip | iTunes

Скачать velotachki-bikes-2018-web-dlrip-itunes.torrent
U Магнитная ссылка Размер: 1.46 GB Раздают: 80 Качают: 21 Добавлен: 2019-07-19 07:18:54
Велотачки / Bikes (2018) WEB-DLRip | iTunes

Велотачки / Bikes

Страна: Испания
Производство: Animation Bikes
Год выпуска: 2018
Жанр:  мультфильм, семейный, спорт
Продолжительность: 01:23:25

Режиссер: Мануэль Х. Гарсиа
Роли озвучивали: Карлос Латре, Анабель Алонсо, Мария Кьероль

Описание: Добро пожаловать в Споксвилль! Небольшой городок, затерявшийся среди живописных гор, лесов и озёр, в котором живут самые разные… велосипеды. Это и горный велик Спиди — смелый и быстрый почтальон, и его лучшие друзья — байк Пиньон, мечтающий стать режиссёром, весёлый велосипедный насос Гэсси, владеющий автомастерской, и прелестная вело-леди Монтана, которая всегда говорит только то, что думает. Волшебный и образцовый городок, наполненный чистейшим воздухом, перестаёт быть идеальным, когда появляется незваный гость с двигателем…

Перевод: Профессиональный (полное дублирование) | iTunes
Субтитры: нет

Качество: WEB-DLRip
Формат: AVI
Видео кодек: XviD
Аудио кодек: АС3
Видео: 704x384 (1.85:1), 24.000 fps, XviD build 73 ~2 107 kbps avg
Аудио: 48.0 kHz, AC3 Dolby Digital, 3/2 (L,C,R,l,r) + LFE ch, ~384 kbps

Дата премьеры (мир): 5 апреля 2019
Дата премьеры (РФ): 2 мая 2019, «MEGOGO Distribution»

Релиз от: порошков


[+] Media Info
General
Формат                                   : AVI
Формат/Информация                        : Audio Video Interleave
Размер файла                             : 1,46 Гбайт
Продолжительность                        : 1 ч. 23 м.
Общий поток                              : 2500 Кбит/сек
Название фильма                          : Велотачки_2018_WEB-DLRip
Программа кодирования                    : VirtualDubMod 1.5.10.3 | (build 2550/release)
Авторское право                          : порошков

Видео
Идентификатор                            : 0
Формат                                   : MPEG-4 Visual
Профиль формата                          : Advanced Simple@L5
Настройки формата                        : BVOP1 / Custom Matrix
Параметр BVOP формата                    : 1
Параметр QPel формата                    : Нет
Параметр GMC формата                     : Без точки перехода
Параметр матрицы формата                 : Выборочная
Идентификатор кодека                     : XVID
Идентификатор кодека/Подсказка           : XviD
Продолжительность                        : 1 ч. 23 м.
Битрейт                                  : 2107 Кбит/сек
Ширина                                   : 704 пикселя
Высота                                   : 384 пикселя
Соотношение сторон                       : 1,85:1
Частота кадров                           : 24,000 кадра/сек
Цветовое пространство                    : YUV
Субдискретизация насыщенности            : 4:2:0
Битовая глубина                          : 8 бит
Тип развёртки                            : Прогрессивная
Метод сжатия                             : С потерями
Бит/(Пиксели*Кадры)                      : 0.325
Размер потока                            : 1,23 Гбайт (84%)
Библиотека кодирования                   : XviD 73

Аудио
Идентификатор                            : 1
Формат                                   : AC-3
Формат/Информация                        : Audio Coding 3
Коммерческое название                    : Dolby Digital
Идентификатор кодека                     : 2000
Продолжительность                        : 1 ч. 23 м.
Вид битрейта                             : Постоянный
Битрейт                                  : 384 Кбит/сек
Каналы                                   : 6 каналов
ChannelLayout                            : L R C LFE Ls Rs
Частота                                  : 48,0 КГц
Частота кадров                           : 31,250 кадров/сек (1536 SPF)
Битовая глубина                          : 16 бит
Метод сжатия                             : С потерями
Размер потока                            : 229 Мбайт (15%)
Выравнивание                             : Разделение по промежуткам
Продолжительность промежутка             : 42  мс. (1,00 видеокадр)
Время предзагрузки промежутка            : 500  мс.



Скриншоты:
[+] Всего файлов в раздаче - 1:
Велотачки_2018_WEB-DLRip.avi1.46 GB

Похожие раздачи по запросу - велотачки:
2019-07-19 U Велотачки / Bikes (2018) WEB-DL 1080p | iTunes 1К3.21 GB ↑ 53 ↓ 18

Отзывы
Зарегистрируйтесь чтобы добавить комментарий.
Обратная связь
Copyleft ©