↑↓Torrent.by
Поиск
Логин: Регистрация
Пароль: Восстановить пароль
Загрузка...

Большой брат / Big Brother / Dai si hing (2018) BDRip-AVC от OlLanDGroup | P

Скачать bolshoy-brat-big-brother-dai-si-hing-2018-bdrip-avc-ot-ollandgroup-p.torrent
U Магнитная ссылка Размер: 1.40 GB Раздают: 51 Качают: 14 Добавлен: 2019-07-19 07:19:33
Большой брат / Big Brother / Dai si hing (2018) BDRip-AVC от OlLanDGroup | P

Большой брат / Big Brother / Dai si hing

Год выпуска: 2018
Страна: США
Производство: Bullet Films,Mega-Vision Pictures (MVP)
Жанр:  Боевик, комедия

Режиссёр: Кам Ка-Вай
В ролях: Донни Йен, Джо Чэнь, Кан Юй, Брахим Ачаббаке, Альфред Чун, Джей Дэй, Семиквавер Иафета

Перевод: Профессиональный многоголосый | [HDRezka Studio]
Субтитры: Русские (форс.), Английские (полные)
Реклама: Отсутствует

Описание: Мистер Чэн приходит устраиваться учителем в обычную гонконгскую школу. Учебное заведение находится на грани закрытия, так как поступаемость в вузы у её выпускников почти нулевая. Но мистер Чэн, обладающий полезными знаниями, эффективными умениями и необычными методами преподавания, начинает бороться с неуспеваемостью и хромающей дисциплиной в классе.

Качество: BDRip-AVC | BluRay Disc | |Big.Brother.2018.1080p.Blu-ray.AVC.TrueHD.5.1-MTeam|
Продолжительность: 01:41:07

Формат: MKV
Видео кодек: MPEG-4 AVC
Аудио кодек: AC3
Видео: 1024x428 (2.40:1), 24,000 fps, x264 ~1 786 kbps avg, 0.170 bit/pixel
Аудио #1: 48 kHz, AC3 Dolby Digital, 2 (L,R) ch, ~192.00 kbps avg | RUS (HDRezka Studio)

Дата премьеры (мир): 1 августа 2018
Дата премьеры (РФ):
Цифровой релиз:

Релиз:


[+] MediaInfo

Общее
Уникальный идентификатор                 : 91962537956321655065795168780786413351 (0x452F572F04B13456AAC992BAA8052F27)
Полное имя                               : F:OlLanDGroupBig.Brother.2018.BDRip(AVC).OlLanDGroup.mkv
Формат                                   : Matroska
Версия формата                           : Version 4 / Version 2
Размер файла                             : 1,40 Гбайт
Продолжительность                        : 1 ч. 41 м.
Общий поток                              : 1978 Кбит/сек
Название фильма                          : Big.Brother.2018   #TorpedoUK#
Дата кодирования                         : UTC 2019-07-18 15:43:50
Программа кодирования                    : mkvmerge v29.0.0 ('Like It Or Not') 64-bit
Библиотека кодирования                   : libebml v1.3.6 + libmatroska v1.4.9

Видео
Идентификатор                            : 1
Формат                                   : AVC
Формат/Информация                        : Advanced Video Codec
Профиль формата                          : High@L4.1
Параметр CABAC формата                   : Да
Параметр ReFrames формата                : 10 кадров
Идентификатор кодека                     : V_MPEG4/ISO/AVC
Продолжительность                        : 1 ч. 41 м.
Битрейт                                  : 1786 Кбит/сек
Ширина                                   : 1024 пикселя
Высота                                   : 428 пикселей
Соотношение сторон                       : 2,40:1
Режим частоты кадров                     : Постоянный
Частота кадров                           : 24,000 кадра/сек
Цветовое пространство                    : YUV
Субдискретизация насыщенности            : 4:2:0
Битовая глубина                          : 8 бит
Тип развёртки                            : Прогрессивная
Бит/(Пиксели*Кадры)                      : 0.170
Размер потока                            : 1,26 Гбайт (90%)
Библиотека кодирования                   : x264 core 146 r2538 121396c
Настройки программы                      : cabac=1 / ref=10 / deblock=1:-3:-3 / analyse=0x3:0x113 / me=umh / subme=11 / psy=1 / psy_rd=0.98:0.04 / mixed_ref=1 / me_range=48 / chroma_me=1 / trellis=2 / 8x8dct=1 / cqm=0 / deadzone=21,11 / fast_pskip=1 / chroma_qp_offset=-3 / threads=6 / lookahead_threads=1 / sliced_threads=0 / nr=0 / decimate=1 / interlaced=0 / bluray_compat=0 / constrained_intra=0 / bframes=11 / b_pyramid=2 / b_adapt=2 / b_bias=0 / direct=3 / weightb=1 / open_gop=0 / weightp=2 / keyint=240 / keyint_min=23 / scenecut=40 / intra_refresh=0 / rc_lookahead=40 / rc=2pass / mbtree=0 / bitrate=1786 / ratetol=1.0 / qcomp=0.60 / qpmin=0 / qpmax=69 / qpstep=4 / cplxblur=20.0 / qblur=0.5 / vbv_maxrate=50000 / vbv_bufsize=62500 / nal_hrd=none / filler=0 / ip_ratio=1.40 / pb_ratio=1.30 / aq=1:1.00
Язык                                     : English
Default                                  : Да
Forced                                   : Нет

Аудио
Идентификатор                            : 2
Формат                                   : AC-3
Формат/Информация                        : Audio Coding 3
Расширение режима                        : CM (complete main)
Параметр Endianness формата              : Big
Идентификатор кодека                     : A_AC3
Продолжительность                        : 1 ч. 41 м.
Вид битрейта                             : Постоянный
Битрейт                                  : 192 Кбит/сек
Каналы                                   : 2 канала
Расположение каналов                     : Front: L R
Частота                                  : 48,0 КГц
Частота кадров                           : 31,250 кадров/сек (1536 spf)
Битовая глубина                          : 16 бит
Метод сжатия                             : С потерями
Размер потока                            : 139 Мбайт (10%)
Заголовок                                : MVO [HDRezka Studio]
Язык                                     : Russian
Default                                  : Да
Forced                                   : Нет

Текст #1
Идентификатор                            : 3
Формат                                   : UTF-8
Идентификатор кодека                     : S_TEXT/UTF8
Идентификатор кодека/Информация          : UTF-8 Plain Text
Продолжительность                        : 49 м. 39 с.
Битрейт                                  : 0 бит/сек
Count of elements                        : 7
Размер потока                            : 298 байт (0%)
Заголовок                                : Forced
Язык                                     : Russian
Default                                  : Да
Forced                                   : Нет

Текст #2
Идентификатор                            : 4
Формат                                   : UTF-8
Идентификатор кодека                     : S_TEXT/UTF8
Идентификатор кодека/Информация          : UTF-8 Plain Text
Продолжительность                        : 1 ч. 36 м.
Битрейт                                  : 65 бит/сек
Count of elements                        : 1485
Размер потока                            : 45,8 Кбайт (0%)
Заголовок                                : Full
Язык                                     : English
Default                                  : Нет
Forced                                   : Нет

Меню
00:00:00.000                             : :Глава 01
00:08:18.666                             : :Глава 02
00:17:09.291                             : :Глава 03
00:25:38.000                             : :Глава 04
00:33:21.375                             : :Глава 05
00:40:57.000                             : :Глава 06
00:48:52.541                             : :Глава 07
00:57:00.166                             : :Глава 08
01:05:24.166                             : :Глава 09
01:15:30.125                             : :Глава 10
01:22:48.000                             : :Глава 11
01:32:56.416                             : :Глава 12



Скриншоты:
[+] Всего файлов в раздаче - 1:
Big.Brother.2018.BDRip(AVC).OlLanDGroup.mkv1.40 GB

Показать еще раздачи по запросу большой:
2019-07-27 U Большой хак / The Great Hack (2019) WEB-DLRip от ExKinoRay | P 1.45 GB ↑ 418 ↓ 97
2019-07-18 U Большой брат / Big Brother / Dai si hing (2018) BDRip 1080p от OlLanDGroup | HDRezka Studio 8.62 GB ↑ 74 ↓ 37
2019-07-18 U Большой брат / Big Brother / Dai si hing (2018) BDRip от MegaPeer | HDRezka Studio 1.46 GB ↑ 222 ↓ 51
2019-05-06 U Большой артист [01-02 из 02] (2019) WEB-DLRip от Files-x 2.75 GB ↑ 196 ↓ 58
2019-04-30 U Большой злой лис и другие сказки / Le grand méchant renard et autres contes... (2017) BDRip | SDI Media 1.46 GB ↑ 137 ↓ 27
2019-04-29 U Большой кошачий побег / Mao yu tao hua yuan / Cats & Peachtopia (2018) WEB-DLRip от MegaPeer | iTunes 1.46 GB ↑ 229 ↓ 60
2019-04-01 U В погоне за Бонни и Клайдом / Разбойники с большой дороги / The Highwaymen (2019) WEB-DLRip от Scarabey | АРК-ТВ Studio & VSI International 2.17 GB ↑ 103 ↓ 32

Отзывы
Зарегистрируйтесь чтобы добавить комментарий.
Обратная связь
Copyleft ©