↑↓Torrent.by
Поиск
Логин: Регистрация
Пароль: Восстановить пароль
Загрузка...

Велотачки / Bikes (2018) WEB-DL 1080p | iTunes

Скачать velotachki-bikes-2018-web-dl-1080p-itunes.torrent
U Магнитная ссылка Размер: 3.21 GB Раздают: 53 Качают: 18 Добавлен: 2019-07-19 07:19:40
Велотачки / Bikes (2018) WEB-DL 1080p | iTunes

Велотачки / Bikes

Страна: Испания
Производство: Animation Bikes
Год выпуска: 2018
Жанр:  мультфильм, семейный, спорт
Продолжительность: 01:23:25

Режиссер: Мануэль Х. Гарсиа
Роли озвучивали: Карлос Латре, Анабель Алонсо, Мария Кьероль

Описание: Добро пожаловать в Споксвилль! Небольшой городок, затерявшийся среди живописных гор, лесов и озёр, в котором живут самые разные… велосипеды. Это и горный велик Спиди — смелый и быстрый почтальон, и его лучшие друзья — байк Пиньон, мечтающий стать режиссёром, весёлый велосипедный насос Гэсси, владеющий автомастерской, и прелестная вело-леди Монтана, которая всегда говорит только то, что думает. Волшебный и образцовый городок, наполненный чистейшим воздухом, перестаёт быть идеальным, когда появляется незваный гость с двигателем…

Перевод: Профессиональный (полное дублирование) | iTunes
Субтитры: нет

Качество: WEB-DL 1080p
Формат: MKV
Видео кодек: AVC
Аудио кодек: AC3
Видео: 1920x1038 (1.85:1), 24.000 fps, MPEG-4 AVC ~5 008 kbps avg
Аудио: 48.0 kHz, AC3 Dolby Digital, 3/2 (L,C,R,l,r) + LFE ch, ~384 kbps

Дата премьеры (мир): 5 апреля 2019
Дата премьеры (РФ): 2 мая 2019, «MEGOGO Distribution»


[+] Media Info
General
Уникальный идентификатор                 : 211429826252633302660941402740395967499 (0x9F0FE7420DD16D57948AD2B22371840B)
Полное имя                               : VELOTA4KI_2018_WEB_DL_1080p-BLUEBIRD.mkv
Формат                                   : Matroska
Версия формата                           : Version 4 / Version 2
Размер файла                             : 3.21 GiB
Продолжительность                        : 1 h 23 min
Общий поток                              : 5 501 kb/s
Название фильма                          : VELOTA4KI_2018_WEB_DL_1080p-BLUEBIRD
Дата кодирования                         : UTC 2019-07-17 18:28:53
Программа кодирования                    : mkvmerge v6.9.1 ('Blue Panther') 32bit built on Apr 18 2014 18:15:44
Библиотека кодирования                   : libebml v1.3.0 + libmatroska v1.4.1
Обложка                                  : Yes

Video
Идентификатор                            : 1
Формат                                   : AVC
Формат/Информация                        : Advanced Video Codec
Профиль формата                          : High@L4
Настройки формата                        : CABAC / 4 Ref Frames
Параметр CABAC формата                   : Yes
Параметр RefFrames формата               : 4 frames
Идентификатор кодека                     : V_MPEG4/ISO/AVC
Продолжительность                        : 1 h 23 min
Битрейт                                  : 5 008 kb/s
Ширина                                   : 1 920 pixels
Высота                                   : 1 038 pixels
Соотношение сторон                       : 1.85:1
Режим частоты кадров                     : Constant
Частота кадров                           : 24.000 FPS
Цветовое пространство                    : YUV
Субдискретизация насыщенности            : 4:2:0
Битовая глубина                          : 8 bits
Тип развёртки                            : Progressive
Бит/(Пиксели*Кадры)                      : 0.105
Размер потока                            : 2.92 GiB (91%)
Заголовок                                : VELOTA4KI_2018_WEB_DL_1080p-BLUEBIRD
Язык                                     : English
Default                                  : Yes
Forced                                   : No
Цветовой диапазон                        : Limited
Основные цвета                           : BT.709
Характеристики трансфера                 : BT.709
Коэффициенты матрицы                     : BT.709

Audio
Идентификатор                            : 2
Формат                                   : AC-3
Формат/Информация                        : Audio Coding 3
Идентификатор кодека                     : A_AC3
Продолжительность                        : 1 h 23 min
Вид битрейта                             : Constant
Битрейт                                  : 384 kb/s
Каналы                                   : 6 channels
Расположение каналов                     : Front: L C R, Side: L R, LFE
Частота                                  : 48.0 kHz
Частота кадров                           : 31.250 FPS (1536 SPF)
Битовая глубина                          : 16 bits
Метод сжатия                             : Lossy
Размер потока                            : 229 MiB (7%)
Заголовок                                : [DUB] DD 5.1 @ 384 kbps (iTunes)
Язык                                     : Russian
Default                                  : Yes
Forced                                   : No

Menu
00:00:00.000                             : en:Глава 1
00:07:42.666                             : en:Глава 2
00:15:14.582                             : en:Глава 3
00:22:16.623                             : en:Глава 4
00:29:19.206                             : en:Глава 5
00:35:47.331                             : en:Глава 6
00:43:24.747                             : en:Глава 7
00:50:42.622                             : en:Глава 8
00:59:26.122                             : en:Глава 9
01:04:59.872                             : en:Глава 10
01:13:10.705                             : en:Глава 11



Скриншоты:
[+] Всего файлов в раздаче - 1:
VELOTA4KI_2018_WEB_DL_1080p-BLUEBIRD.mkv3.21 GB

Похожие раздачи по запросу - велотачки:
2019-07-19 U Велотачки / Bikes (2018) WEB-DLRip | iTunes 1.46 GB ↑ 80 ↓ 21

Отзывы
olegtrek
ну мульт очевидно для просмотра не старше 6 лет

Зарегистрируйтесь чтобы добавить комментарий.
Обратная связь
Copyleft ©