↑↓Torrent.by
Поиск
Логин: Регистрация
Пароль: Восстановить пароль
Загрузка...

Балканский рубеж (2019) WEB-DLRip 1080p от Талямбы | 60 fps | iTunes

Скачать balkanskiy-rubezh-2019-web-dlrip-1080p-ot-talyamby-60-fps-itunes.torrent
U Магнитная ссылка Размер: 13.02 GB Раздают: 38 Качают: 43 Добавлен: 2019-07-20 08:26:37
Балканский рубеж (2019) WEB-DLRip 1080p от Талямбы | 60 fps | iTunes

Название: Балканский рубеж
Оригинальное название: Balkanskiy rubezh
Год выхода: 2019
Жанр: Боевик, драма
Режиссер: Андрей Волгин
В ролях: Антон Пампушный, Гоша Куценко, Милош Бикович, Милена Радулович, Гойко Митич, Равшана Куркова, Дмитрий Фрид, Александар Сречкович, Светлана Чуйкина, Миодраг Радонич

О фильме:
Югославия. 1999 год. Российская спецгруппа получает приказ взять под контроль аэродром Слатина в Косово и удерживать его до прихода подкрепления. Но этот стратегический объект крайне важен албанскому полевому командиру и натовским генералам. Группа вынуждена принять неравный бой с террористами. К аэродрому устремляются российские миротворцы и силы НАТО. Мир вновь близок к большой войне. Но командиру спецгруппы Андрею Шаталову не до политики: в аэропорту среди заложников его любимая девушка Ясна.

Страна: Россия, Сербия
Студия: Апгрейд Вижн, Блесс-Фильм, Archangel Studios
Продолжительность: 2 ч. 30 м. 35 с.
Перевод: Русский | iTunes

Файл
Кодек: MPEG4/ISO/AVC/H.264
Качество: WEB-DLRip 1080p
Видео: 1920x800, 59.940 fps, 12.0 Mbps
Аудио 1: AC-3, 48 kHz, 6 ch, 384 kbps - Русский
Субтитры: НЕТ

Релиз:


[+] MediaInfo

Видео
Идентификатор                            : 1
Формат                                   : AVC
Формат/Информация                        : Advanced Video Codec
Профиль формата                          : High@L4.1
Параметр CABAC формата                   : Да
Параметр ReFrames формата                : 5 кадров
Идентификатор кодека                     : V_MPEG4/ISO/AVC
Продолжительность                        : 2 ч. 30 м.
Битрейт                                  : 12,0 Мбит/сек
Ширина                                   : 1920 пикселей
Высота                                   : 800 пикселей
Соотношение сторон                       : 2,40:1
Режим частоты кадров                     : Постоянный
Частота кадров                           : 60,000 кадров/сек
Цветовое пространство                    : YUV
Субдискретизация насыщенности            : 4:2:0
Битовая глубина                          : 8 бит
Тип развёртки                            : Прогрессивная
Бит/(Пиксели*Кадры)                      : 0.130
Размер потока                            : 12,6 Гбайт (97%)
Заголовок                                : Талямба
Библиотека кодирования                   : x264 core 146 r2538 121396c
Настройки программы                      : cabac=1 / ref=5 / deblock=1:-2:-2 / analyse=0x3:0x113 / me=umh / subme=9 / psy=1 / psy_rd=1.00:0.25 / mixed_ref=1 / me_range=32 / chroma_me=1 / trellis=2 / 8x8dct=1 / cqm=0 / deadzone=6,6 / fast_pskip=1 / chroma_qp_offset=-4 / threads=12 / lookahead_threads=2 / sliced_threads=0 / nr=0 / decimate=0 / interlaced=0 / bluray_compat=0 / constrained_intra=0 / bframes=3 / b_pyramid=2 / b_adapt=2 / b_bias=0 / direct=3 / weightb=1 / open_gop=0 / weightp=2 / keyint=600 / keyint_min=60 / scenecut=40 / intra_refresh=0 / rc_lookahead=60 / rc=2pass / mbtree=1 / bitrate=12000 / ratetol=1.0 / qcomp=0.80 / qpmin=0 / qpmax=69 / qpstep=4 / cplxblur=20.0 / qblur=0.5 / vbv_maxrate=50000 / vbv_bufsize=50000 / nal_hrd=none / filler=0 / ip_ratio=1.10 / aq=1:0.50
Язык                                     : Russian
Default                                  : Да
Forced                                   : Нет

Аудио
Идентификатор                            : 2
Формат                                   : AC-3
Формат/Информация                        : Audio Coding 3
Расширение режима                        : CM (complete main)
Параметр Endianness формата              : Big
Идентификатор кодека                     : A_AC3
Продолжительность                        : 2 ч. 30 м.
Вид битрейта                             : Постоянный
Битрейт                                  : 384 Кбит/сек
Каналы                                   : 6 каналов
Расположение каналов                     : Front: L C R, Side: L R, LFE
Частота                                  : 48,0 КГц
Частота кадров                           : 31,250 кадров/сек (1536 spf)
Битовая глубина                          : 16 бит
Метод сжатия                             : С потерями
Размер потока                            : 414 Мбайт (3%)
Заголовок                                : iTunes
Язык                                     : Russian
Default                                  : Да
Forced                                   : Нет

Меню
00:00:00.000                             : en:Глава 1
00:08:07.583                             : en:Глава 2
00:16:05.374                             : en:Глава 3
00:24:34.164                             : en:Глава 4
00:32:34.704                             : en:Глава 5
00:40:46.079                             : en:Глава 6
00:48:54.370                             : en:Глава 7
00:57:07.203                             : en:Глава 8
01:05:33.661                             : en:Глава 9
01:15:00.618                             : en:Глава 10
01:23:12.534                             : en:Глава 11
01:31:20.659                             : en:Глава 12
01:39:42.491                             : en:Глава 13
01:47:49.948                             : en:Глава 14
01:56:03.614                             : en:Глава 15
02:04:19.739                             : en:Глава 16
02:13:00.239                             : en:Глава 17
02:21:11.030                             : en:Глава 18




Скриншоты:
[+] Всего файлов в раздаче - 1:
Балканский рубеж.mkv13.02 GB

Показать еще раздачи по запросу балканский:
2019-08-10 U Балканский рубеж (2019) BDRip-AVC от New-Team | iTunes 2.90 GB ↑ 36 ↓ 6
2019-08-10 U Балканский рубеж (2019) BDRip-AVC от New-Team | iTunes 1.47 GB ↑ 31 ↓ 5
2019-08-10 U Балканский рубеж (2019) BDRip 720p от k.e.n & MegaPeer | FRA Transfer | iTunes 4.37 GB ↑ 44 ↓ 5
2019-08-05 U Балканский рубеж (2019) BDRip от Twister & ExKinoRay | iTunes 2.11 GB ↑ 56 ↓ 21
2019-08-04 U Балканский рубеж (2019) BDRip от MegaPeer | iTunes 2.18 GB ↑ 93 ↓ 34
2019-08-04 U Балканский рубеж (2019) BDRip от MegaPeer | iTunes 1.46 GB ↑ 71 ↓ 30
2019-05-05 U Балканский рубеж (2019) WEB-DLRip от Scarabey | iTunes 2.17 GB ↑ 159 ↓ 34

Отзывы
Зарегистрируйтесь чтобы добавить комментарий.
Обратная связь
Copyleft ©