↑↓Torrent.by
Поиск
Логин: Регистрация
Пароль: Восстановить пароль
Загрузка...

Дар (2018) WEB-DLRip-AVC от ExKinoRay | iTunes

Скачать dar-2018-web-dlrip-avc-ot-exkinoray-itunes.torrent
U Магнитная ссылка Размер: 1.52 GB Раздают: 83 Качают: 34 Добавлен: 2019-07-20 19:59:33
Дар (2018) WEB-DLRip-AVC от ExKinoRay | iTunes

Название: Дар
Год выпуска: 2018
Жанр:  Комедия
Режиссер: Михаил Кукушкин
В ролях: Алексей Колубков, Юрий Оборотов, Владимир Карпук, Валерия Дергилева, Светлана Бобкина, Евгений Зеленов, Ульяна Глушкова, Алёна Константинова, Виктория Пятакина, Дмитрий Пугач

Описание: Толя Сидоров — простой рабочий предпенсионного возраста из российской глубинки — неожиданно открывает у себя талант художника и становится сенсацией в мире современного искусства. А все это из-за того, что создание «шедевров» происходит в очень интимный момент… Слава о необычном художнике разлетается по Интернету, и на выставку уринальной живописи Анатолия приезжают ценители даже из Москвы. Как в русской сказке, на героя чудесным образом сваливается признание и деньги, но Толя предпочитает сохранять инкогнито, пытаясь понять, а творчество ли это. Да и мужики с завода засмеют, если узнают.

Страна: Россия
Студия: АРТЛАЙТ, Инвада фильм
Продолжительность: 01:34:50
Язык: Русский | iTunes

За исходник спасибо KORSAR

Формат: MKV
Качество: WEB-DLRip-AVC
Видео: MPEG-4 AVC, 1024x554 (1.85:1), 25.000 fps, 1905 Kbps, 0.140 bit/pixel
Аудио : 48 kHz, AC3, 5.1, 384 Kbps | iTunes |

Релиз:

Автор релиза:


[+] ОтчетМедиаИнфо

General
Unique ID                                : 248002812716905630854274225795108824620 (0xBA939AB5653BCD2594A1EE28B00DE62C)
Complete name                            : F:Дар.2018.WEB-DL.AVC.ExKinoRay.mkv
Format                                   : Matroska
Format version                           : Version 2
File size                                : 1.52 GiB
Duration                                 : 1 h 34 min
Overall bit rate                         : 2 287 kb/s
Movie name                               : Дар2018 from ExKinoRay
Encoded date                             : UTC 2019-07-20 13:08:54
Writing application                      : mkvmerge v5.6.0 ('Kenya Kane') built on May 27 2012 16:44:04
Writing library                          : libebml v1.2.3 + libmatroska v1.3.0

Video
ID                                       : 1
Format                                   : AVC
Format/Info                              : Advanced Video Codec
Format profile                           : High@L4.1
Format settings, CABAC                   : Yes
Format settings, ReFrames                : 12 frames
Codec ID                                 : V_MPEG4/ISO/AVC
Duration                                 : 1 h 34 min
Bit rate                                 : 1 905 kb/s
Width                                    : 1 024 pixels
Height                                   : 554 pixels
Display aspect ratio                     : 1.85:1
Frame rate mode                          : Constant
Frame rate                               : 24.000 FPS
Color space                              : YUV
Chroma subsampling                       : 4:2:0
Bit depth                                : 8 bits
Scan type                                : Progressive
Bits/(Pixel*Frame)                       : 0.140
Stream size                              : 1.23 GiB (81%)
Title                                    : Enigma
Writing library                          : x264 core 152 r2851 ba24899
Encoding settings                        : cabac=1 / ref=12 / deblock=1:-2:-2 / analyse=0x3:0x113 / me=umh / subme=10 / psy=1 / psy_rd=1.05:0.10 / mixed_ref=1 / me_range=32 / chroma_me=1 / trellis=2 / 8x8dct=1 / cqm=0 / deadzone=21,11 / fast_pskip=0 / chroma_qp_offset=-3 / threads=12 / lookahead_threads=3 / sliced_threads=0 / nr=0 / decimate=0 / interlaced=0 / bluray_compat=0 / constrained_intra=0 / bframes=10 / b_pyramid=2 / b_adapt=2 / b_bias=0 / direct=3 / weightb=1 / open_gop=0 / weightp=2 / keyint=240 / keyint_min=24 / scenecut=40 / intra_refresh=0 / rc=2pass / mbtree=0 / bitrate=1905 / ratetol=1.0 / qcomp=0.60 / qpmin=0 / qpmax=51 / qpstep=4 / cplxblur=20.0 / qblur=0.5 / ip_ratio=1.40 / pb_ratio=1.30 / aq=1:1.00
Language                                 : English
Default                                  : Yes
Forced                                   : No
Color range                              : Limited
Color primaries                          : BT.709
Transfer characteristics                 : BT.709
Matrix coefficients                      : BT.709

Audio
ID                                       : 2
Format                                   : AC-3
Format/Info                              : Audio Coding 3
Mode extension                           : CM (complete main)
Format settings, Endianness              : Big
Codec ID                                 : A_AC3
Duration                                 : 1 h 34 min
Bit rate mode                            : Constant
Bit rate                                 : 384 kb/s
Channel(s)                               : 6 channels
Channel positions                        : Front: L C R, Side: L R, LFE
Sampling rate                            : 48.0 kHz
Frame rate                               : 31.250 FPS (1536 spf)
Compression mode                         : Lossy
Stream size                              : 261 MiB (17%)
Language                                 : Russian
Default                                  : Yes
Forced                                   : No




Скриншоты:
[+] Всего файлов в раздаче - 1:
Дар.2018.WEB-DL.AVC.ExKinoRay.mkv1.52 GB

Показать еще раздачи по запросу dlrip:
Сегодня U Ма / Ma (2019) WEB-DLRip-AVC | D | iTunes 1К743.55 MB ↑ 59 ↓ 10
Сегодня U Игра Ганнибала / Night Hunter / Nomis (2018) WEB-DLRip-AVC | HDRezka Studio 742.52 MB ↑ 82 ↓ 14
Сегодня U Свет моей жизни / Light of My Life (2019) WEB-DLRip | HDRezka Studio 1.46 GB ↑ 98 ↓ 34
Сегодня U Брексит / Brexit: The Uncivil War (2019) WEB-DLRip | P 1.46 GB ↑ 82 ↓ 35
Сегодня U Свет моей жизни / Light of My Life (2019) WEB-DLRip-AVC от OlLanDGroup | P 1.94 GB ↑ 46 ↓ 28
Сегодня U Коррупционер / The Corrupted (2019) WEB-DLRip-AVC | iTunes 1.54 GB ↑ 49 ↓ 15
Сегодня U Тайная жизнь домашних животных 2 / The Secret Life of Pets 2 (2019) WEB-DLRip-AVC от OlLanDGroup | P 1.40 GB ↑ 78 ↓ 32

Отзывы
Зарегистрируйтесь чтобы добавить комментарий.
Обратная связь
Copyleft ©